<?xml version="1.0" standalone="no"?>
<!DOCTYPE svg PUBLIC "-//W3C//DTD SVG 1.1//EN" "http://www.w3.org/Graphics/SVG/1.1/DTD/svg11.dtd" >
<svg xmlns="http://www.w3.org/2000/svg">
<metadata>
<json>
{
	"fontFamily": "cartagenia",
	"majorVersion": 1,
	"minorVersion": 0,
	"version": "Version 1.0",
	"fontId": "cartagenia",
	"psName": "cartagenia",
	"subFamily": "Regular",
	"fullName": "cartagenia",
	"description": "Generated by IcoMoon"
}
</json>
</metadata>
<defs>
<font id="cartagenia" horiz-adv-x="512">
<font-face units-per-em="512" ascent="480" descent="-32" />
<missing-glyph horiz-adv-x="512" />
<glyph unicode="&#x20;" d="" horiz-adv-x="256" />
<glyph unicode="&#xe600;" d="M292.576 84.85v54.272q0 4-2.72 6.72t-6.432 2.72h-54.848q-3.712 0-6.432-2.72t-2.72-6.72v-54.272q0-4 2.72-6.72t6.432-2.72h54.848q3.712 0 6.432 2.72t2.72 6.72zM292 191.698l5.152 131.136q0 3.424-2.848 5.44-3.712 3.136-6.848 3.136h-62.848q-3.136 0-6.848-3.136-2.848-2.016-2.848-6.016l4.864-130.56q0-2.848 2.848-4.704t6.848-1.856h52.864q4 0 6.72 1.856t3.008 4.704zM288 458.578l219.424-402.272q10.016-18.016-0.576-36-4.864-8.288-13.28-13.152t-18.144-4.864h-438.848q-9.728 0-18.144 4.864t-13.28 13.152q-10.56 18.016-0.576 36l219.424 402.272q4.864 8.864 13.44 14.016t18.56 5.152 18.56-5.152 13.44-14.016z" />
<glyph unicode="&#xe601;" d="M475.424 201.157q-43.424 67.424-108.864 100.864 17.44-29.728 17.44-64.288 0-52.864-37.568-90.432t-90.432-37.568-90.432 37.568-37.568 90.432q0 34.56 17.44 64.288-65.44-33.44-108.864-100.864 38.016-58.56 95.296-93.28t124.128-34.72 124.128 34.72 95.296 93.28zM269.728 310.853q0 5.728-4 9.728t-9.728 4q-35.712 0-61.28-25.568t-25.568-61.28q0-5.728 4-9.728t9.728-4 9.728 4 4 9.728q0 24.576 17.44 42.016t42.016 17.44q5.728 0 9.728 4t4 9.728zM512 201.157q0-9.728-5.728-19.712-40-65.728-107.584-105.28t-142.72-39.584-142.72 39.712-107.584 105.152q-5.728 10.016-5.728 19.712t5.728 19.712q40 65.44 107.584 105.152t142.72 39.712 142.72-39.712 107.584-105.152q5.728-10.016 5.728-19.712z" />
<glyph unicode="&#xe602;" d="M402.272 73.989q0-34.272-20.864-54.144t-55.424-19.872h-249.728q-34.56 0-55.424 19.872t-20.864 54.144q0 15.136 0.992 29.568t4 31.136 7.584 31.008 12.288 27.872 17.728 23.136 24.416 15.296 31.872 5.728q2.56 0 12-6.144t21.28-13.728 30.848-13.728 38.144-6.144 38.144 6.144 30.848 13.728 21.28 13.728 12 6.144q17.44 0 31.872-5.728t24.416-15.296 17.728-23.136 12.288-27.872 7.584-31.008 4-31.136 0.992-29.568zM310.848 329.157q0-45.44-32.128-77.568t-77.568-32.128-77.568 32.128-32.128 77.568 32.128 77.568 77.568 32.128 77.568-32.128 32.128-77.568z" horiz-adv-x="416" />
<glyph unicode="&#xe603;" d="M365.728 54.853q0 7.424-5.44 12.864t-12.864 5.44-12.864-5.44-5.44-12.864 5.44-12.864 12.864-5.44 12.864 5.44 5.44 12.864zM438.848 54.853q0 7.424-5.44 12.864t-12.864 5.44-12.864-5.44-5.44-12.864 5.44-12.864 12.864-5.44 12.864 5.44 5.44 12.864zM475.424 118.853v-91.424q0-11.424-8-19.424t-19.424-8h-420.576q-11.424 0-19.424 8t-8 19.424v91.424q0 11.424 8 19.424t19.424 8h122.016q6.016-16 20.128-26.272t31.584-10.272h73.152q17.44 0 31.584 10.272t20.128 26.272h122.016q11.424 0 19.424-8t8-19.424zM382.56 304.005q-4.864-11.424-16.864-11.424h-73.152v-128q0-7.424-5.44-12.864t-12.864-5.44h-73.152q-7.424 0-12.864 5.44t-5.44 12.864v128h-73.152q-12 0-16.864 11.424-4.864 11.136 4 19.712l128 128q5.152 5.44 12.864 5.44t12.864-5.44l128-128q8.864-8.576 4-19.712z" horiz-adv-x="480" />
<glyph unicode="&#xe604;" d="M438.848 219.429q0-44.576-17.44-85.152t-46.848-70.016-70.016-46.848-85.152-17.44q-49.152 0-93.44 20.704t-75.424 58.432q-2.016 2.848-1.856 6.432t2.432 5.856l39.136 39.424q2.848 2.56 7.136 2.56 4.576-0.576 6.56-3.424 20.864-27.136 51.136-42.016t64.288-14.848q29.728 0 56.704 11.584t46.72 31.296 31.296 46.72 11.584 56.704-11.584 56.704-31.296 46.72-46.72 31.296-56.704 11.584q-28 0-53.728-10.144t-45.728-28.992l39.136-39.424q8.864-8.576 4-19.712-4.864-11.424-16.864-11.424h-128q-7.424 0-12.864 5.44t-5.44 12.864v128q0 12 11.424 16.864 11.136 4.864 19.712-4l37.152-36.864q30.56 28.864 69.856 44.704t81.28 15.872q44.576 0 85.152-17.44t70.016-46.848 46.848-70.016 17.44-85.152z" horiz-adv-x="448" />
<glyph unicode="&#xe605;" d="M144.107 278.88v-177.563c0-2.666-0.853-4.853-2.56-6.56s-3.893-2.56-6.56-2.56h-13.76c-2.666 0-4.853 0.853-6.56 2.56s-2.56 3.894-2.56 6.56v177.563c0 2.667 0.853 4.853 2.56 6.56s3.894 2.56 6.56 2.56h13.76c2.667 0 4.853-0.853 6.56-2.56s2.56-3.893 2.56-6.56zM224 278.88v-177.563c0-2.666-0.853-4.853-2.56-6.56s-3.893-2.56-6.56-2.56h-13.76c-2.667 0-4.853 0.853-6.56 2.56s-2.56 3.894-2.56 6.56v177.563c0 2.667 0.853 4.853 2.56 6.56s3.893 2.56 6.56 2.56h13.76c2.667 0 4.853-0.853 6.56-2.56s2.56-3.893 2.56-6.56zM303.341 278.88v-177.563c0-3.834-0.853-4.853-2.56-6.56s-3.894-2.56-6.56-2.56h-13.76c-2.666 0-4.853 0.853-6.56 2.56s-2.56 3.894-2.56 6.56v177.563c0 2.667 0.853 4.853 2.56 6.56s3.894 2.56 6.56 2.56h13.76c2.666 0 4.853-0.853 6.56-2.56s2.56-3.893 2.56-6.56zM352 59.013v292.923h-288v-292.923c0-4.181 0.672-14.009 2.016-17.55 1.344-3.541 2.72-5.43 4.128-7.031 1.408-1.6 2.41-2.411 3.008-2.432h269.728c0.576 0 1.579 0.81 3.008 2.432s2.805 3.51 4.128 7.031c1.322 3.52 1.995 13.348 2.016 17.55zM135.744 384h144.608l-13.728 28.864c-1.344 1.707-2.966 2.752-4.864 3.136h-107.168c-1.899-0.384-3.52-1.429-4.864-3.136zM416 374.88v-13.76c0-2.667-0.853-4.853-2.56-6.56s-3.894-2.56-6.56-2.56c0 0-9.841 0-22.88 0v-292.923c0-15.808-4.48-30.277-13.44-41.797-8.96-11.52-19.723-17.28-32.288-17.28h-260.544c-12.566 0-23.328 5.568-32.288 16.704-8.96 11.136-13.44 25.413-13.44 41.221v294.075h-22.88c-2.667 0-4.854 0.853-6.56 2.56-1.706 1.707-2.56 3.894-2.56 6.56v13.76c0 2.667 0.854 4.853 2.56 6.56s3.894 2.56 6.56 2.56h86.88l20 38.56c2.859 7.040 8 13.046 15.424 18.016s14.944 7.445 22.56 7.424h108.032c7.616 0 15.136-2.474 22.56-7.424s12.565-10.954 15.424-18.016l20-38.56h86.816c2.666 0 4.853-0.853 6.56-2.56s2.56-3.893 2.56-6.56z" horiz-adv-x="416" />
<glyph unicode="&#xe606;" d="M313.44 167.141l-41.728-41.728q-2.848-2.848-6.56-2.848t-6.56 2.848l-39.136 39.136-39.136-39.136q-2.848-2.848-6.56-2.848t-6.56 2.848l-41.728 41.728q-2.848 2.848-2.848 6.56t2.848 6.56l39.136 39.136-39.136 39.136q-2.848 2.848-2.848 6.56t2.848 6.56l41.728 41.728q2.848 2.848 6.56 2.848t6.56-2.848l39.136-39.136 39.136 39.136q2.848 2.848 6.56 2.848t6.56-2.848l41.728-41.728q2.848-2.848 2.848-6.56t-2.848-6.56l-39.136-39.136 39.136-39.136q2.848-2.848 2.848-6.56t-2.848-6.56zM374.848 219.429q0 42.272-20.864 78.016t-56.576 56.576-78.016 20.864-78.016-20.864-56.576-56.576-20.864-78.016 20.864-78.016 56.576-56.576 78.016-20.864 78.016 20.864 56.576 56.576 20.864 78.016zM438.848 219.429q0-59.712-29.44-110.144t-79.872-79.872-110.144-29.44-110.144 29.44-79.872 79.872-29.44 110.144 29.44 110.144 79.872 79.872 110.144 29.44 110.144-29.44 79.872-79.872 29.44-110.144z" horiz-adv-x="448" />
<glyph unicode="&#xe607;" d="M328.288 154.853q0 7.424-5.44 12.864l-51.712 51.712 51.712 51.712q5.44 5.44 5.44 12.864 0 7.712-5.44 13.152l-25.728 25.728q-5.44 5.44-13.152 5.44-7.424 0-12.864-5.44l-51.712-51.712-51.712 51.712q-5.44 5.44-12.864 5.44-7.712 0-13.152-5.44l-25.728-25.728q-5.44-5.44-5.44-13.152 0-7.424 5.44-12.864l51.712-51.712-51.712-51.712q-5.44-5.44-5.44-12.864 0-7.712 5.44-13.152l25.728-25.728q5.44-5.44 13.152-5.44 7.424 0 12.864 5.44l51.712 51.712 51.712-51.712q5.44-5.44 12.864-5.44 7.712 0 13.152 5.44l25.728 25.728q5.44 5.44 5.44 13.152zM438.848 219.429q0-59.712-29.44-110.144t-79.872-79.872-110.144-29.44-110.144 29.44-79.872 79.872-29.44 110.144 29.44 110.144 79.872 79.872 110.144 29.44 110.144-29.44 79.872-79.872 29.44-110.144z" horiz-adv-x="448" />
<glyph unicode="&#xe608;" d="M370.848 97.701q0-11.424-8-19.424l-38.848-38.848q-8-8-19.424-8t-19.424 8l-84 84-84-84q-8-8-19.424-8t-19.424 8l-38.848 38.848q-8 8-8 19.424t8 19.424l84 84-84 84q-8 8-8 19.424t8 19.424l38.848 38.848q8 8 19.424 8t19.424-8l84-84 84 84q8 8 19.424 8t19.424-8l38.848-38.848q8-8 8-19.424t-8-19.424l-84-84 84-84q8-8 8-19.424z" horiz-adv-x="416" />
<glyph unicode="&#xe609;" d="M128 347.429q0 15.136-10.72 25.856t-25.856 10.72-25.856-10.72-10.72-25.856 10.72-25.856 25.856-10.72 25.856 10.72 10.72 25.856zM432.864 182.853q0-15.136-10.56-25.728l-140.288-140.576q-11.136-10.56-26.016-10.56-15.136 0-25.728 10.56l-204.288 204.576q-10.848 10.56-18.432 28.864t-7.584 33.44v118.848q0 14.848 10.848 25.728t25.728 10.848h118.848q15.136 0 33.44-7.584t29.152-18.432l204.288-204q10.56-11.136 10.56-26.016z" horiz-adv-x="448" />
<glyph unicode="&#xe60a;" d="M438.848 420.581v-402.272q0-7.424-5.44-12.864t-12.864-5.44h-402.272q-7.424 0-12.864 5.44t-5.44 12.864v402.272q0 7.424 5.44 12.864t12.864 5.44h402.272q7.424 0 12.864-5.44t5.44-12.864z" horiz-adv-x="448" />
<glyph unicode="&#xe60b;" d="M12.864 3.717q-5.44-5.44-9.152-3.712t-3.712 9.152v420.576q0 7.424 3.712 9.152t9.152-3.712l202.848-202.848q2.272-2.272 3.712-5.44v193.728q0 7.424 5.44 12.864t12.864 5.44h36.576q7.424 0 12.864-5.44t5.44-12.864v-402.272q0-7.424-5.44-12.864t-12.864-5.44h-36.576q-7.424 0-12.864 5.44t-5.44 12.864v193.728q-1.44-2.848-3.712-5.44z" horiz-adv-x="288" />
<glyph unicode="&#xe60c;" d="M279.712 435.141q5.44 5.44 9.152 3.712t3.712-9.152v-420.576q0-7.424-3.712-9.152t-9.152 3.712l-202.848 202.848q-2.56 2.56-3.712 5.44v-193.728q0-7.424-5.44-12.864t-12.864-5.44h-36.576q-7.424 0-12.864 5.44t-5.44 12.864v402.272q0 7.424 5.44 12.864t12.864 5.44h36.576q7.424 0 12.864-5.44t5.44-12.864v-193.728q1.152 3.136 3.712 5.44z" horiz-adv-x="288" />
<glyph unicode="&#xe60d;" d="M324.864 188.581l87.424 84.864-120.576 17.728-54.016 109.152-54.016-109.152-120.576-17.728 87.424-84.864-20.864-120.288 108 56.864 107.712-56.864zM475.424 290.565q0-6.272-7.424-13.728l-103.712-101.152 24.576-142.848q0.288-2.016 0.288-5.728 0-14.272-11.712-14.272-5.44 0-11.424 3.424l-128.288 67.424-128.288-67.424q-6.272-3.424-11.424-3.424-6.016 0-8.992 4.128t-3.008 10.144q0 1.728 0.576 5.728l24.576 142.848-104 101.152q-7.136 7.712-7.136 13.728 0 10.56 16 13.152l143.424 20.864 64.288 130.016q5.44 11.712 14.016 11.712t14.016-11.712l64.288-130.016 143.424-20.864q16-2.56 16-13.152z" horiz-adv-x="480" />
<glyph unicode="&#xe60e;" d="M475.424 290.565q0-6.272-7.424-13.728l-103.712-101.152 24.576-142.848q0.288-2.016 0.288-5.728 0-6.016-3.008-10.144t-8.704-4.128q-5.44 0-11.424 3.424l-128.288 67.424-128.288-67.424q-6.272-3.424-11.424-3.424-6.016 0-8.992 4.128t-3.008 10.144q0 1.728 0.576 5.728l24.576 142.848-104 101.152q-7.136 7.712-7.136 13.728 0 10.56 16 13.152l143.424 20.864 64.288 130.016q5.44 11.712 14.016 11.712t14.016-11.712l64.288-130.016 143.424-20.864q16-2.56 16-13.152z" horiz-adv-x="480" />
<glyph unicode="&#xe60f;" d="M86 416c-23.426 0-44.383-8.384-61-25-16.616-16.616-25-36.574-25-60v-246c0-23.426 8.383-43.384 25-60s37.574-25 61-25h245c23.426 0 43.384 8.384 60 25s25 36.574 25 60v246c0 23.426-8.384 43.384-25 60s-36.574 25-60 25h-245zM81 384h254c13.418 0 25.432-4.432 35-14s14-21.582 14-35v-254c0-13.418-4.432-25.432-14-35s-21.582-14-35-14h-254c-13.418 0-25.432 4.432-35 14s-14 21.582-14 35v254c0 13.418 4.432 25.432 14 35s21.582 14 35 14z" horiz-adv-x="416" />
<glyph unicode="&#xe610;" d="M416 330.662v-245.578c0-23.426-8.308-43.543-24.925-60.159-16.616-16.616-36.479-24.925-59.905-24.925h-245.578c-23.426 0-44.051 8.308-60.667 24.925-16.616 16.616-24.924 36.733-24.924 60.159v245.578c0 23.426 8.308 43.797 24.924 60.413 16.616 16.616 37.242 24.924 60.667 24.924h245.578c23.426 0 43.288-8.308 59.905-24.924 16.616-16.617 24.925-36.988 24.925-60.413z" horiz-adv-x="416" />
<glyph unicode="&#xe611;" d="M384.576 392.869q0 18.016-12.576 33.152t-29.44 15.136q-14.848 0-23.712-10.56t-8.864-26.848 10.432-27.136 29.856-10.848q14.272 0 24.288 7.712t10.016 19.424zM210.272 64.005q0-3.424-2.848-6.848l-91.136-91.136q-2.848-2.56-6.56-2.56-3.424 0-6.56 2.56l-91.424 91.424q-4.288 4.576-2.016 10.016 2.272 5.728 8.576 5.728h54.848v393.152q0 4 2.56 6.56t6.56 2.56h54.848q4 0 6.56-2.56t2.56-6.56v-393.152h54.848q4 0 6.56-2.56t2.56-6.56zM416-3.995v-32.576h-134.016v32.576h47.712v123.424q0 2.016 0.128 5.44t0.128 4.864v4.576h-0.576l-2.016-3.424q-2.272-3.712-7.424-8.864l-17.728-16.576-23.424 24.576 54.848 52.864h35.136v-186.848h47.136zM424.576 376.293q0-17.728-3.712-34.72t-11.712-32.576-19.424-27.296-28.128-18.72-36.416-7.008q-17.728 0-30.848 4.576-6.848 2.272-12 4.288l11.136 32.288q4.288-2.016 8.864-3.136 10.56-3.712 21.44-3.712 24 0 38.432 16.704t19.008 41.568h-0.576q-6.016-6.56-17.568-10.56t-24.128-4q-30.272 0-49.44 20.416t-19.136 49.28q0 30.016 20.576 50.848t51.712 20.864q35.136 0 58.56-27.008t23.424-72.128z" horiz-adv-x="448" />
<glyph unicode="&#xe612;" d="M384.576 100.293q0 18.016-12.576 33.152t-29.44 15.136q-14.848 0-23.712-10.56t-8.864-26.848 10.432-27.136 29.856-10.848q14.272 0 24.288 7.712t10.016 19.424zM210.272 64.005q0-3.424-2.848-6.848l-91.136-91.136q-2.848-2.56-6.56-2.56-3.424 0-6.56 2.56l-91.424 91.424q-4.288 4.576-2.016 10.016 2.272 5.728 8.576 5.728h54.848v393.152q0 4 2.56 6.56t6.56 2.56h54.848q4 0 6.56-2.56t2.56-6.56v-393.152h54.848q4 0 6.56-2.56t2.56-6.56zM424.576 83.717q0-17.728-3.712-34.72t-11.712-32.576-19.424-27.296-28.128-18.72-36.416-7.008q-17.728 0-30.848 4.576-6.848 2.272-12 4.288l11.136 32.288q4.288-2.016 8.864-3.136 10.56-3.712 21.44-3.712 24 0 38.432 16.704t19.008 41.568h-0.576q-6.016-6.56-17.568-10.56t-24.128-4q-30.272 0-49.44 20.416t-19.136 49.28q0 30.016 20.576 50.848t51.712 20.864q35.136 0 58.56-27.008t23.424-72.128zM416 288.581v-32.576h-134.016v32.576h47.712v123.424q0 2.016 0.128 5.44t0.128 4.864v4.576h-0.576l-2.016-3.424q-2.272-3.712-7.424-8.864l-17.728-16.576-23.424 24.576 54.848 52.864h35.136v-186.848h47.136z" horiz-adv-x="448" />
<glyph unicode="&#xe613;" d="M347.424 27.429v-54.848q0-4-2.56-6.56t-6.56-2.56h-73.152q-4 0-6.56 2.56t-2.56 6.56v54.848q0 4 2.56 6.56t6.56 2.56h73.152q4 0 6.56-2.56t2.56-6.56zM210.272 64.005q0-3.424-2.848-6.848l-91.136-91.136q-2.848-2.56-6.56-2.56-3.424 0-6.56 2.56l-91.424 91.424q-4.288 4.576-2.016 10.016 2.272 5.728 8.576 5.728h54.848v393.152q0 4 2.56 6.56t6.56 2.56h54.848q4 0 6.56-2.56t2.56-6.56v-393.152h54.848q4 0 6.56-2.56t2.56-6.56zM402.272 173.701v-54.848q0-4-2.56-6.56t-6.56-2.56h-128q-4 0-6.56 2.56t-2.56 6.56v54.848q0 4 2.56 6.56t6.56 2.56h128q4 0 6.56-2.56t2.56-6.56zM457.152 320.005v-54.848q0-4-2.56-6.56t-6.56-2.56h-182.848q-4 0-6.56 2.56t-2.56 6.56v54.848q0 4 2.56 6.56t6.56 2.56h182.848q4 0 6.56-2.56t2.56-6.56zM512 466.277v-54.848q0-4-2.56-6.56t-6.56-2.56h-237.728q-4 0-6.56 2.56t-2.56 6.56v54.848q0 4 2.56 6.56t6.56 2.56h237.728q4 0 6.56-2.56t2.56-6.56z" />
<glyph unicode="&#xe614;" d="M210.272 64.005q0-3.424-2.848-6.848l-91.136-91.136q-2.848-2.56-6.56-2.56-3.424 0-6.56 2.56l-91.424 91.424q-4.288 4.576-2.016 10.016 2.272 5.728 8.576 5.728h54.848v393.152q0 4 2.56 6.56t6.56 2.56h54.848q4 0 6.56-2.56t2.56-6.56v-393.152h54.848q4 0 6.56-2.56t2.56-6.56zM512 27.429v-54.848q0-4-2.56-6.56t-6.56-2.56h-237.728q-4 0-6.56 2.56t-2.56 6.56v54.848q0 4 2.56 6.56t6.56 2.56h237.728q4 0 6.56-2.56t2.56-6.56zM457.152 173.701v-54.848q0-4-2.56-6.56t-6.56-2.56h-182.848q-4 0-6.56 2.56t-2.56 6.56v54.848q0 4 2.56 6.56t6.56 2.56h182.848q4 0 6.56-2.56t2.56-6.56zM402.272 320.005v-54.848q0-4-2.56-6.56t-6.56-2.56h-128q-4 0-6.56 2.56t-2.56 6.56v54.848q0 4 2.56 6.56t6.56 2.56h128q4 0 6.56-2.56t2.56-6.56zM347.424 466.277v-54.848q0-4-2.56-6.56t-6.56-2.56h-73.152q-4 0-6.56 2.56t-2.56 6.56v54.848q0 4 2.56 6.56t6.56 2.56h73.152q4 0 6.56-2.56t2.56-6.56z" />
<glyph unicode="&#xe615;" d="M340.288 66.277h50.56l-20.576 62.272-3.424 13.44q-0.576 4.576-0.576 5.728h-1.152l-0.864-5.728q0-0.288-0.992-5.152t-2.144-8.288zM210.272 64.005q0-3.424-2.848-6.848l-91.136-91.136q-2.848-2.56-6.56-2.56-3.424 0-6.56 2.56l-91.424 91.424q-4.288 4.576-2.016 10.016 2.272 5.728 8.576 5.728h54.848v393.152q0 4 2.56 6.56t6.56 2.56h54.848q4 0 6.56-2.56t2.56-6.56v-393.152h54.848q4 0 6.56-2.56t2.56-6.56zM474.56-6.299v-30.272h-82.272v30.272h21.44l-13.44 41.152h-69.44l-13.44-41.152h21.44v-30.272h-82.016v30.272h20l65.728 189.152h46.272l65.728-189.152h20zM449.152 322.565v-66.56h-166.848v25.728l105.44 151.136q3.424 5.152 6.016 7.712l3.136 2.56v0.864q-0.576 0-1.856-0.128t-2.144-0.128q-3.424-0.864-8.576-0.864h-66.272v-32.864h-34.272v65.44h162.016v-25.44l-105.44-151.424q-1.728-2.272-6.016-7.424l-3.136-2.848v-0.864l4 0.864q2.56 0.288 8.576 0.288h70.848v34.016h34.56z" horiz-adv-x="480" />
<glyph unicode="&#xe616;" d="M340.288 358.853h50.56l-20.576 62.272-3.424 13.44q-0.576 4.576-0.576 5.728h-1.152l-0.864-5.728q0-0.288-0.992-5.152t-2.144-8.288zM210.272 64.005q0-3.424-2.848-6.848l-91.136-91.136q-2.848-2.56-6.56-2.56-3.424 0-6.56 2.56l-91.424 91.424q-4.288 4.576-2.016 10.016 2.272 5.728 8.576 5.728h54.848v393.152q0 4 2.56 6.56t6.56 2.56h54.848q4 0 6.56-2.56t2.56-6.56v-393.152h54.848q4 0 6.56-2.56t2.56-6.56zM449.152 29.989v-66.56h-166.848v25.728l105.44 151.136q3.424 5.152 6.016 7.712l3.136 2.56v0.864q-0.576 0-1.856-0.128t-2.144-0.128q-3.424-0.864-8.576-0.864h-66.272v-32.864h-34.272v65.44h162.016v-25.44l-105.44-151.424q-1.728-2.272-6.016-7.424l-3.136-3.136v-0.576l4 0.576q2.56 0.576 8.576 0.576h70.848v34.016h34.56zM474.56 286.277v-30.272h-82.272v30.272h21.44l-13.44 41.152h-69.44l-13.44-41.152h21.44v-30.272h-82.016v30.272h20l65.728 189.152h46.272l65.728-189.152h20z" horiz-adv-x="480" />
<glyph unicode="&#xe617;" d="M512 292.581q0-7.424-5.44-12.864l-146.272-146.272q-5.44-5.44-12.864-5.44t-12.864 5.44-5.44 12.864v73.152h-64q-28 0-50.144-1.728t-44-6.144-38.016-12.128-30.144-19.872-22.848-28.864-13.856-39.584-4.992-51.712q0-15.712 1.44-35.136 0-1.728 0.704-6.72t0.704-7.584q0-4.288-2.432-7.136t-6.72-2.848q-4.576 0-8 4.864-2.016 2.56-3.712 6.272t-3.872 8.576-3.008 6.848q-36.288 81.44-36.288 128.864 0 56.864 15.136 95.136 46.272 115.136 250.016 115.136h64v73.152q0 7.424 5.44 12.864t12.864 5.44 12.864-5.44l146.272-146.272q5.44-5.44 5.44-12.864z" />
<glyph unicode="&#xe618;" d="M329.152 237.701q0 52.864-37.568 90.432t-90.432 37.568-90.432-37.568-37.568-90.432 37.568-90.432 90.432-37.568 90.432 37.568 37.568 90.432zM475.424 0.005q0-14.848-10.848-25.728t-25.728-10.848q-15.424 0-25.728 10.848l-98.016 97.728q-51.136-35.424-114.016-35.424-40.864 0-78.144 15.872t-64.288 42.848-42.848 64.288-15.872 78.144 15.872 78.144 42.848 64.288 64.288 42.848 78.144 15.872 78.144-15.872 64.288-42.848 42.848-64.288 15.872-78.144q0-62.848-35.424-114.016l98.016-98.016q10.56-10.56 10.56-25.728z" horiz-adv-x="480" />
<glyph unicode="&#xe619;" d="M160 32h160v96h-160zM352 32h64v265.152c0 2.666-0.95 6.336-2.848 11.008s-3.808 7.958-5.728 9.856l-66.56 89.408c-1.603 2.154-5.142 3.808-9.728 5.728s-8.298 2.87-11.136 2.848v-132.576c0-7.616-2.666-14.091-8-19.424s-11.808-8-19.424-8h-137.152c-7.616 0-14.090 2.667-19.424 8s-8 11.808-8 19.424v132.576h-64v-384h64v100.576c0 7.616 2.667 14.091 8 19.424s11.808 8 19.424 8h169.152c7.616 0 14.091-2.666 19.424-8 5.334-5.334 8-11.808 8-19.424zM288 297.152v109.696c0 2.475-0.906 4.619-2.72 6.432s-3.957 2.72-6.432 2.72h-45.696c-2.475 0-4.619-0.906-6.432-2.72s-2.72-3.957-2.72-6.432v-109.696c0-2.474 0.906-4.618 2.72-6.432s3.958-2.72 6.432-2.72h45.696c2.474 0 4.618 0.906 6.432 2.72s2.72 3.957 2.72 6.432zM448 297.152v-269.728c0-7.616-2.666-14.091-8-19.424-5.334-5.334-11.808-8-19.424-8h-361.152c-7.616 0-14.090 2.666-19.424 8s-8 11.808-8 19.424v393.152c0 7.616 2.666 14.091 8 19.424s11.808 8 19.424 8h265.152c7.616 0 16-1.909 25.152-5.728s14.188-11.917 18.709-17.954l60.171-80.35c4.521-6.038 9.909-12.576 13.728-21.728 3.818-9.152 5.728-17.536 5.728-25.152z" horiz-adv-x="480" />
<glyph unicode="&#xe61a;" d="M416 443.429h-320l-96-96v-336c0-8.832 7.168-16 16-16h480c8.832 0 16 7.168 16 16v336l-96 96zM320 155.429v-96h-128v96h-96l160 128 160-128h-96zM77.248 379.429l32 32h293.504l32-32h-357.504z" />
<glyph unicode="&#xe61b;" d="M437.024 400.453c-46.336 46.336-110.304 74.976-181.024 74.976-109.76 0-203.36-69.056-239.744-166.080l59.936-22.464c27.296 72.768 97.504 124.576 179.808 124.576 53.024 0 101.024-21.504 135.744-56.256l-71.744-71.744h192v192l-74.976-74.976zM256 27.429c-53.024 0-101.024 21.504-135.744 56.256l71.744 71.744h-192v-192l75.008 75.008c46.336-46.336 110.304-75.008 180.992-75.008 109.76 0 203.36 69.056 239.744 166.080l-59.936 22.464c-27.296-72.768-97.504-124.576-179.808-124.576z" />
<glyph unicode="&#xe61c;" d="M109.728 36.581h256v73.152h-256v-73.152zM109.728 219.429h256v109.728h-45.728q-11.424 0-19.424 8t-8 19.424v45.728h-182.848v-182.848zM438.848 201.157q0 7.424-5.44 12.864t-12.864 5.44-12.864-5.44-5.44-12.864 5.44-12.864 12.864-5.44 12.864 5.44 5.44 12.864zM475.424 201.157v-118.848q0-3.712-2.72-6.432t-6.432-2.72h-64v-45.728q0-11.424-8-19.424t-19.424-8h-274.272q-11.424 0-19.424 8t-8 19.424v45.728h-64q-3.712 0-6.432 2.72t-2.72 6.432v118.848q0 22.56 16.128 38.72t38.72 16.128h18.272v155.424q0 11.424 8 19.424t19.424 8h192q11.424 0 25.152-5.728t21.728-13.728l43.424-43.424q8-8 13.728-21.728t5.728-25.152v-73.152h18.272q22.56 0 38.72-16.128t16.128-38.72z" horiz-adv-x="480" />
<glyph unicode="&#xe61d;" d="M101 384c-18.901 0-35.678-6.678-49-20s-20-29.099-20-48v-215c0-18.719 6.678-35.587 20-49s30.099-20 49-20h214c18.901-0.023 35.678 6.565 49 20 13.322 13.435 20 30.304 20 49v215c0 18.901-6.678 34.678-20 48-13.322 13.322-30.099 20-49 20h-214zM95 352h226c8.568 0 16-3 22-9s9-13.432 9-22v-226c0-8.568-3-16-9-22s-13.432-9-22-9h-226c-8.568 0-16 3-22 9s-9 13.432-9 22v226c0 8.568 3 16 9 22s13.432 9 22 9zM288 214.88v-13.76c0-2.666-0.853-4.853-2.56-6.56s-3.894-2.56-6.56-2.56h-54.88v-54.88c0-2.666-0.853-4.853-2.56-6.56s-3.893-2.56-6.56-2.56h-13.76c-2.667 0-4.853 0.853-6.56 2.56s-2.56 3.894-2.56 6.56v54.88h-54.88c-2.667 0-4.853 0.853-6.56 2.56s-2.56 3.894-2.56 6.56v13.76c0 2.666 0.853 4.853 2.56 6.56s3.893 2.56 6.56 2.56h54.88v54.88c0 2.667 0.853 4.853 2.56 6.56s3.893 2.56 6.56 2.56h13.76c2.667 0 4.853-0.853 6.56-2.56s2.774-3.902 2.56-6.56v-54.88h54.88c2.666 0 4.853-0.853 6.56-2.56s2.56-3.894 2.56-6.56z" horiz-adv-x="416" />
<glyph unicode="&#xe61e;" d="M402.272 265.157v-54.848q0-11.424-8-19.424t-19.424-8h-118.848v-118.848q0-11.424-8-19.424t-19.424-8h-54.848q-11.424 0-19.424 8t-8 19.424v118.848h-118.848q-11.424 0-19.424 8t-8 19.424v54.848q0 11.424 8 19.424t19.424 8h118.848v118.848q0 11.424 8 19.424t19.424 8h54.848q11.424 0 19.424-8t8-19.424v-118.848h118.848q11.424 0 19.424-8t8-19.424z" horiz-adv-x="416" />
<glyph unicode="&#xe61f;" d="M395.424 210.565l-379.424-210.848q-6.56-3.712-11.296-0.864t-4.704 10.272v420.576q0 7.424 4.704 10.272t11.296-0.864l379.424-210.848q6.56-3.712 6.56-8.864t-6.56-8.864z" horiz-adv-x="416" />
<glyph unicode="&#xe620;" d="M101 384c-18.901 0-35.678-6.678-49-20s-20-29.099-20-48v-215c0-18.719 6.678-35.587 20-49s30.099-20 49-20h214c18.901-0.023 35.678 6.565 49 20 13.322 13.435 20 30.304 20 49v215c0 18.901-6.678 34.678-20 48-13.322 13.322-30.099 20-49 20h-214zM95 352h226c8.568 0 16-3 22-9s9-13.432 9-22v-226c0-8.568-3-16-9-22s-13.432-9-22-9h-226c-8.568 0-16 3-22 9s-9 13.432-9 22v226c0 8.568 3 16 9 22s13.432 9 22 9zM137 224c-2.667 0-4.293-1.293-6-3s-3-3.334-3-6v-14c0-2.666 1.293-4.293 3-6s3.333-3 6-3h142c2.666 0 4.293 1.293 6 3s3 3.334 3 6v14c0 2.666-1.293 4.293-3 6s-3.334 3-6 3h-142z" horiz-adv-x="416" />
<glyph unicode="&#xe621;" d="M402.272 265.157v-54.848q0-11.424-8-19.424t-19.424-8h-347.424q-11.424 0-19.424 8t-8 19.424v54.848q0 11.424 8 19.424t19.424 8h347.424q11.424 0 19.424-8t8-19.424z" horiz-adv-x="416" />
<glyph unicode="&#xe622;" d="M32 187.429h192v-192l-69.12 69.12-100.992-100.992-53.728 53.728 100.992 100.992zM410.88 118.309l100.992-100.992-53.728-53.728-100.992 100.992-69.12-69.12v192h192zM480 251.429h-192v192l69.12-69.12 100.992 100.992 53.728-53.728-100.992-100.992zM154.88 374.309l69.12 69.12v-192h-192l69.12 69.12-100.992 100.992 53.728 53.728z" />
<glyph unicode="&#xe623;" d="M512 475.429v-192l-69.12 69.12-106.016-106.016-53.728 53.728 106.016 106.016-69.12 69.12zM122.88 406.309l106.016-106.016-53.728-53.728-106.016 106.016-69.12-69.12v192h192zM442.88 86.309l69.12 69.12v-192h-192l69.12 69.12-106.016 106.016 53.728 53.728zM228.864 138.565l-106.016-106.016 69.12-69.12h-192v192l69.12-69.12 106.016 106.016z" />
<glyph unicode="&#xe624;" d="M218.56 334.565q-2.56-5.44-8.288-5.44h-64v-356.576q0-4-2.56-6.56t-6.56-2.56h-54.848q-4 0-6.56 2.56t-2.56 6.56v356.576h-64q-6.016 0-8.288 5.44t1.44 10.016l100 109.728q2.848 2.848 6.56 2.848 4 0 6.848-2.848l101.44-109.728q3.712-4.576 1.44-10.016z" horiz-adv-x="224" />
<glyph unicode="&#xe625;" d="M218.56 104.293q2.272-5.44-1.44-10.016l-100-109.728q-2.848-2.848-6.56-2.848-4 0-6.848 2.848l-101.44 109.728q-3.712 4.576-1.44 10.016 2.56 5.44 8.288 5.44h64v356.576q0 4 2.56 6.56t6.56 2.56h54.848q4 0 6.56-2.56t2.56-6.56v-356.576h64q6.016 0 8.288-5.44z" horiz-adv-x="224" />
<glyph unicode="&#xe626;" d="M91.424 256.005h146.272v54.848q0 30.272-21.44 51.712t-51.712 21.44-51.712-21.44-21.44-51.712v-54.848zM329.152 228.581v-164.576q0-11.424-8-19.424t-19.424-8h-274.272q-11.424 0-19.424 8t-8 19.424v164.576q0 11.424 8 19.424t19.424 8h9.152v54.848q0 52.576 37.728 90.272t90.272 37.728 90.272-37.728 37.728-90.272v-54.848h9.152q11.424 0 19.424-8t8-19.424z" horiz-adv-x="320" />
<glyph unicode="&#xe627;" d="M192 59.429h320v-64h-320zM192 251.429h320v-64h-320zM192 443.429h320v-64h-320zM96 475.429v-128h-32v96h-32v32zM64 212.421v-24.992h64v-32h-96v72.992l64 30.016v24.992h-64v32h96v-72.992zM128 123.429v-160h-96v32h64v32h-64v32h64v32h-64v32z" />
<glyph unicode="&#xe628;" d="M416 128.005q0 11.424-8 19.424l-59.424 59.424q-8 8-19.424 8-12 0-20.576-9.152 0.864-0.864 5.44-5.28t6.144-6.144 4.288-5.44 3.712-7.296 0.992-7.872q0-11.424-8-19.424t-19.424-8q-4.288 0-7.872 0.992t-7.296 3.712-5.44 4.288-6.144 6.144-5.28 5.44q-9.44-8.864-9.44-20.864 0-11.424 8-19.424l58.848-59.136q7.712-7.712 19.424-7.712 11.424 0 19.424 7.424l42.016 41.728q8 8 8 19.136zM215.136 329.413q0 11.424-8 19.424l-58.848 59.136q-8 8-19.424 8-11.136 0-19.424-7.712l-42.016-41.728q-8-8-8-19.136 0-11.424 8-19.424l59.424-59.424q7.712-7.712 19.424-7.712 12 0 20.576 8.864-0.864 0.864-5.44 5.28t-6.144 6.144-4.288 5.44-3.712 7.296-0.992 7.872q0 11.424 8 19.424t19.424 8q4.288 0 7.872-0.992t7.296-3.712 5.44-4.288 6.144-6.144 5.28-5.44q9.44 8.864 9.44 20.864zM470.848 128.005q0-34.272-24.288-58.016l-42.016-41.728q-23.712-23.712-58.016-23.712-34.56 0-58.272 24.288l-58.848 59.136q-23.712 23.712-23.712 58.016 0 35.136 25.152 59.712l-25.152 25.152q-24.576-25.152-59.424-25.152-34.272 0-58.272 24l-59.424 59.424q-24 24-24 58.272t24.288 58.016l42.016 41.728q23.712 23.712 58.016 23.712 34.56 0 58.272-24.288l58.848-59.136q23.712-23.712 23.712-58.016 0-35.136-25.152-59.712l25.152-25.152q24.576 25.152 59.424 25.152 34.272 0 58.272-24l59.424-59.424q24-24 24-58.272z" horiz-adv-x="480" />
<glyph unicode="&#xe629;" d="M292.576 82.277v45.728q0 4-2.56 6.56t-6.56 2.56h-27.424v146.272q0 4-2.56 6.56t-6.56 2.56h-91.424q-4 0-6.56-2.56t-2.56-6.56v-45.728q0-4 2.56-6.56t6.56-2.56h27.424v-91.424h-27.424q-4 0-6.56-2.56t-2.56-6.56v-45.728q0-4 2.56-6.56t6.56-2.56h128q4 0 6.56 2.56t2.56 6.56zM256 338.277v45.728q0 4-2.56 6.56t-6.56 2.56h-54.848q-4 0-6.56-2.56t-2.56-6.56v-45.728q0-4 2.56-6.56t6.56-2.56h54.848q4 0 6.56 2.56t2.56 6.56zM438.848 219.429q0-59.712-29.44-110.144t-79.872-79.872-110.144-29.44-110.144 29.44-79.872 79.872-29.44 110.144 29.44 110.144 79.872 79.872 110.144 29.44 110.144-29.44 79.872-79.872 29.44-110.144z" horiz-adv-x="448" />
<glyph unicode="&#xe62a;" d="M256 424.165l-133.12-124.928h84.48v-131.072h97.28v131.072h84.512l-133.152 124.928zM495.104 128.709l-81.504 54.848h-50.24l87.040-66.752h-90.752c-2.624 0-4.928-1.344-6.144-3.392l-20.896-57.216h-153.184l-20.928 57.216c-1.152 2.080-3.52 3.392-6.144 3.392h-90.72l87.072 66.752h-50.272l-81.472-54.848c-12.128-7.232-19.392-23.968-16.128-37.088l14.368-78.688c3.264-13.152 17.696-23.936 32.032-23.936h417.6c14.4 0 28.8 10.784 32.064 23.936l14.368 78.688c3.296 13.152-3.968 29.856-16.096 37.088z" />
<glyph unicode="&#xe62b;" d="M513.812 213.984c-1.812 6.471-5.046 10.016-15.136 10.016h-315.796c-7.616 0-15.755-2.048-24.416-6.144s-15.466-9.099-20.416-15.008l-84-117.408c-3.434-4.565-5.152-8.373-5.152-11.424 0-6.678 5.045-10.016 15.136-10.016h310.848c7.616 0 15.808 2.091 24.576 6.272s15.531 9.226 20.288 15.136l88.948 117.408c3.434 4.182 5.152 7.894 5.152 11.136zM182.848 256h228.576v36.576c0 7.616-2.666 14.090-8 19.424-5.334 5.333-11.808 8-19.424 8h-169.152c-7.616 0-14.090 2.667-19.424 8-5.333 5.333-8 11.808-8 19.424v9.152c0 7.616-2.667 14.091-8 19.424-5.333 5.334-11.808 8-19.424 8h-100.576c-7.616 0-14.090-2.666-19.424-8s-8-11.808-8-19.424v-247.106l77.728 111.682c8.384 10.090 19.435 18.422 33.152 24.992 13.718 6.571 27.050 9.856 40 9.856zM545.44 213.984c0-11.819-4.384-23.243-13.152-34.272l-84.288-113.043c-8.192-10.091-19.243-18.421-33.152-24.992-13.909-6.57-27.243-9.856-40-9.856h-310.848c-17.514 0-32.566 6.283-45.152 18.848-12.586 12.565-18.869 27.616-18.848 45.152v260.755c0 17.514 6.282 27.989 18.848 40.576s27.616 18.87 45.152 18.848h96c17.514 0 32.565-6.282 45.152-18.848 12.587-12.565 18.869-23.040 18.848-40.576v-0.032h160c17.514 0 32.565-6.283 45.152-18.848s18.87-27.616 18.848-45.152v-36.576h45.696c10.283 0 19.712-2.336 28.288-7.008s14.955-11.381 19.136-20.128c2.859-6.101 4.288-8 4.288-14.848z" horiz-adv-x="544" />
<glyph unicode="&#xe62c;" d="M448 96.603v196.014c0 7.604-2.694 14.070-8.082 19.395-5.387 5.325-16.622 7.988-24.315 7.988h-195.901c-7.694 0-14.234 2.663-19.621 7.988-5.387 5.325-8.082 11.79-8.082 19.395v4.142c0 7.604-2.694 18.558-8.082 23.884-5.387 5.325-11.928 7.988-19.621 7.988h-99.647c-7.694 0-19.181-2.663-24.569-7.988-5.388-5.326-8.081-16.28-8.081-23.884v-254.921c0-7.604 3.090-19.289 8.477-24.615 5.388-5.325 16.876-7.988 24.569-7.988h350.954c7.693 0 18.927 2.663 24.315 7.988 5.387 5.325 7.685 17.010 7.685 24.615zM480.254 292.014v-196.014c0-17.488-3.536-34.932-16.228-47.5s-30.312-15.855-48.026-15.834h-350.954c-17.692 0-35.915 3.287-48.63 15.834-12.714 12.546-16.438 29.99-16.416 47.5v254.921c0 17.488 5.139 33.12 17.832 45.688 12.693 12.568 29.104 18.809 46.819 18.787h94.7c17.692 0 32.896-6.273 45.611-18.819 12.714-12.547 19.061-27.575 19.040-45.084v0.508h191.604c17.692 0 32.896-2.387 45.611-14.934s19.061-27.575 19.039-45.084z" horiz-adv-x="480" />
<glyph unicode="&#xe62d;" d="M400.864 391.141q4.864-11.712-4-20l-140.864-140.864v-212q0-12-11.136-16.864-3.712-1.44-7.136-1.44-7.712 0-12.864 5.44l-73.152 73.152q-5.44 5.44-5.44 12.864v138.848l-140.864 140.864q-8.864 8.288-4 20 4.864 11.136 16.864 11.136h365.728q12 0 16.864-11.136z" horiz-adv-x="416" />
<glyph unicode="&#xe62e;" d="M319.904 237.477h22.112l-25.504-113.088-33.152 159.008h-53.28l-38.56-159.008-28.896 159.008h-55.712l56.544-255.936h54.432l38.144 151.36 34.112-151.36h50.176l64.8 255.936h-85.216zM451.712 375.717l-71.424 71.424c-15.552 15.552-46.272 28.288-68.288 28.288h-240c-22.016 0-40-18.016-40-40v-432c0-22.016 18.016-40 40-40h368c22.016 0 40 18.016 40 40v304c0 22.016-12.736 52.736-28.288 68.288zM429.088 353.093c1.568-1.568 3.136-3.488 4.64-5.664h-81.728v81.728c2.176-1.504 4.096-3.072 5.664-4.64l71.424-71.424zM448 3.429c0-4.352-3.648-8-8-8h-368c-4.32 0-8 3.648-8 8v432c0 4.32 3.68 8 8 8h240c2.4 0 5.12-0.32 8-0.864v-127.136h127.136c0.544-2.88 0.864-5.568 0.864-8v-304z" />
<glyph unicode="&#xe62f;" d="M72 448c-22.016 0-40-18.016-40-40v-368c0-22.016 18.016-40 40-40h304c22.016 0 40 18.016 40 40v240c0 22.016-12.448 52.448-28 68l-72 72c-15.552 15.552-45.984 28-68 28zM72 416h176c2.4 0 8-1 8-1s0-58.743 0-87c0-22.016 17.016-40 39-40 31.128 0.197 59.991 0.335 88 0 0.544-2.88 1-5.568 1-8v-240c0-4.352-3.648-8-8-8h-304c-4.32 0-8 3.648-8 8v368c0 4.32 3.68 8 8 8zM288 402c2.176-1.504 4.432-3.432 6-5l71-71c1.568-1.568 3.496-3.824 5-6h-74c-4.32 0-7.934 3.649-8 8v66zM320 118.88v-13.76c0-2.666-0.997-4.853-2.99-6.56s-4.547-2.56-7.661-2.56h-171.174c-3.114 0-5.668 0.853-7.661 2.56-1.993 1.707-2.99 3.894-2.99 6.56v13.76c0 2.666 0.997 4.853 2.99 6.56 1.993 1.707 4.547 2.56 7.661 2.56h171.174c3.114 0 5.668-0.853 7.661-2.56s2.99-3.894 2.99-6.56zM320 214.88v-13.76c0-2.666-0.997-4.853-2.99-6.56s-4.547-2.56-7.661-2.56h-171.174c-3.114 0-5.668 0.853-7.661 2.56-1.993 1.707-2.99 3.894-2.99 6.56v13.76c0 2.666 0.997 4.853 2.99 6.56 1.993 1.707 4.547 2.56 7.661 2.56h171.174c3.114 0 5.668-0.853 7.661-2.56s2.99-3.894 2.99-6.56z" horiz-adv-x="448" />
<glyph unicode="&#xe630;" d="M420.992 180.677c-6.816 6.72-21.952 10.272-44.992 10.592-15.584 0.16-34.336-1.216-54.080-3.968-8.832 5.088-17.952 10.656-25.088 17.344-19.232 17.952-35.296 42.88-45.28 70.304 0.64 2.56 1.216 4.8 1.728 7.104 0 0 10.848 61.536 7.968 82.336-0.384 2.848-0.64 3.68-1.408 5.888l-0.928 2.432c-2.944 6.784-8.736 13.984-17.792 13.6l-5.472 0.16c-10.112 0-18.336-5.152-20.48-12.896-6.56-24.224 0.224-60.448 12.48-107.36l-3.136-7.648c-8.8-21.44-19.808-43.040-29.536-62.080l-1.28-2.464c-10.24-20.032-19.52-37.024-27.936-51.424l-8.672-4.608c-0.64-0.32-15.52-8.224-19.008-10.336-29.632-17.696-49.248-37.76-52.512-53.696-1.024-5.088-0.256-11.584 4.992-14.592l8.416-4.224c3.648-1.824 7.488-2.752 11.424-2.752 21.088 0 45.6 26.272 79.36 85.184 38.976 12.672 83.328 23.232 122.208 29.056 29.632-16.672 66.080-28.288 89.056-28.288 4.096 0 7.616 0.384 10.464 1.152 4.416 1.184 8.128 3.68 10.4 7.104 4.448 6.72 5.376 15.968 4.16 25.44-0.352 2.816-2.592 6.304-5.024 8.672zM105.824 68.389c3.84 10.528 19.072 31.328 41.6 49.792 1.408 1.152 4.896 4.416 8.096 7.456-23.552-37.568-39.328-52.544-49.696-57.216zM239.232 375.589c6.784 0 10.656-17.088 10.976-33.12s-3.424-27.296-8.064-35.616c-3.84 12.32-5.728 31.744-5.728 44.448 0 0-0.288 24.288 2.816 24.288zM199.424 156.677c4.736 8.448 9.632 17.376 14.656 26.848 12.256 23.168 19.968 41.28 25.728 56.16 11.456-20.832 25.728-38.56 42.496-52.768 2.080-1.76 4.32-3.552 6.624-5.312-34.112-6.752-63.584-14.944-89.536-24.928zM414.464 158.597c-2.080-1.312-8.032-2.048-11.84-2.048-12.352 0-27.648 5.632-49.056 14.848 8.224 0.608 15.776 0.928 22.56 0.928 12.384 0 16.064 0.064 28.16-3.040s12.256-9.376 10.208-10.656zM451.712 375.717l-71.424 71.424c-15.552 15.552-46.272 28.288-68.288 28.288h-240c-22.016 0-40-18.016-40-40v-432c0-22.016 18.016-40 40-40h368c22.016 0 40 18.016 40 40v304c0 22.016-12.736 52.736-28.288 68.288zM429.088 353.093c1.568-1.568 3.136-3.488 4.64-5.664h-81.728v81.728c2.176-1.504 4.096-3.072 5.664-4.64l71.424-71.424zM448 3.429c0-4.352-3.648-8-8-8h-368c-4.32 0-8 3.648-8 8v432c0 4.32 3.68 8 8 8h240c2.4 0 5.12-0.32 8-0.864v-127.136h127.136c0.544-2.88 0.864-5.568 0.864-8v-304z" />
<glyph unicode="&#xe631;" d="M72 448c-22.016 0-40-18.016-40-40v-368c0-22.016 18.016-40 40-40h304c22.016 0 40 18.016 40 40v240c0 22.016-12.448 52.448-28 68l-72 72c-15.552 15.552-45.984 28-68 28zM72 416h176c2.4 0 8-1 8-1s0-58.743 0-87c0-22.016 17.016-40 39-40 31.128 0.197 59.991 0.335 88 0 0.544-2.88 1-5.568 1-8v-240c0-4.352-3.648-8-8-8h-304c-4.32 0-8 3.648-8 8v368c0 4.32 3.68 8 8 8zM288 402c2.176-1.504 4.432-3.432 6-5l71-71c1.568-1.568 3.496-3.824 5-6h-74c-4.32 0-7.934 3.649-8 8v66z" horiz-adv-x="448" />
<glyph unicode="&#xe632;" d="M371.52 288h-67.648l-47.872-70.528-47.872 70.528h-67.648l81.088-121.216-91.488-134.784h131.104v45.792h-30.272l25.088 37.504 55.712-83.296h70.208l-91.488 134.784zM451.712 380.288l-71.424 71.424c-15.552 15.552-46.272 28.288-68.288 28.288h-240c-22.016 0-40-18.016-40-40v-432c0-22.016 18.016-40 40-40h368c22.016 0 40 18.016 40 40v304c0 22.016-12.736 52.736-28.288 68.288zM429.088 357.664c1.568-1.568 3.136-3.488 4.64-5.664h-81.728v81.728c2.176-1.504 4.096-3.072 5.664-4.64l71.424-71.424zM448 8c0-4.352-3.648-8-8-8h-368c-4.32 0-8 3.648-8 8v432c0 4.32 3.68 8 8 8h240c2.4 0 5.12-0.32 8-0.864v-127.136h127.136c0.544-2.88 0.864-5.568 0.864-8v-304z" />
<glyph unicode="&#xe633;" d="M371 447c-2.361 0-4.44-0.007-7-1-7.678-3.354-11-8.726-11-17v-57h-48c-20.873 0-40.171-0.837-58-3-17.828-2.163-33.408-5.161-47-9-13.592-3.839-26.056-9.285-37-15-10.944-5.715-20.322-11.601-28-18-7.678-6.399-14.175-13.814-20-22-5.825-8.186-10.558-16.123-14-24-3.442-7.877-5.926-16.534-8-26-2.074-9.466-3.316-18.726-4-27-0.684-8.274-1-16.336-1-26 0-11.010 1.558-22.982 5-36 3.442-13.019 6.852-24.557 11-34 4.148-9.443 9.395-19.85 15-30 5.605-10.15 9.815-16.646 12-20 2.185-3.354 4.036-6.242 6-9 1.964-2.56 3.845-4 7-4 0.794 0 2.434 0.603 4 1 4.546 2.185 6.596 5.476 6 10-8.87 66.195-1.455 113.014 22 140 22.661 25.816 65.365 38 129 38h48v-56c0-8.274 3.322-14.646 11-18 2.56-0.993 4.639-1 7-1 5.317 0 10.447 1.249 14 5l113 114c3.751 3.751 6 7.881 6 13s-2.249 9.249-6 13l-113 114c-3.751 3.751-8.881 5-14 5zM84 416c-23.107 0-42.61-8.335-59-25s-25-36.506-25-60v-246c0-23.494 8.61-43.335 25-60 16.39-16.664 35.893-25 59-25h248c23.107 0 42.61 8.336 59 25 16.39 16.665 25 36.506 25 60v56c0 4.155-2.109 7.43-6 9s-7.602 0.392-10-3l-13-18c-1.739-1.768-3-4.436-3-7v-37c0-13.018-5.059-30.321-16-39-10.2-8.091-23.197-14-36-14h-248c-12.803 0-26.87 5.717-36 15-9.13 9.283-16 24.982-16 38v246c0 13.018 6.87 28.717 16 38s23.197 15 36 15c12.792-0.007 25.836 0 39 0 1.126 0 3.144 0.333 5 1 10.43 5.632 22.648 10.702 37 15 4.839 0.834 7 3.536 7 8 0 2.149-1.227 3.425-3 5-1.773 1.575-3.581 3-6 3-26.18 0-53.086 0-79 0z" />
<glyph unicode="&#xe634;" d="M84 416c-23.107 0-42.61-8.335-59-25s-25-36.506-25-60v-246c0-23.494 8.61-43.335 25-60 16.39-16.664 35.893-25 59-25h248c23.107 0 42.61 8.336 59 25 16.39 16.665 25 36.506 25 60v56c0 4.155-2.109 7.43-6 9-3.891 1.569-7.602 0.392-10-3l-13-18c-1.739-1.768-3-4.436-3-7v-37c0-13.018-5.059-30.321-16-39-10.2-8.091-23.197-14-36-14h-248c-12.803 0-26.87 5.717-36 15-9.13 9.283-16 24.982-16 38v246c0 13.018 6.87 28.717 16 38s23.197 15 36 15h242c4.283 0 8.544-0.807 13-2 3.5-1.193 5.716 0.943 9 3l15 9c2.81 1.762 2.587 4.64 2 8-0.587 3.139-2.087 5.608-5 7-10.478 4.928-21.762 7-34 7h-242zM416 391c-7.616 0-13.666-2.666-19-8l-27-26 83-83 26 27c5.334 5.333 8 11.384 8 19s-2.666 13.666-8 19l-43 44c-5.334 5.334-12.384 8-20 8zM352 338l-192-192v-82h82l192 192-82 82zM352 299c1.574 0.048 3.474-0.475 5-2 3.050-3.050 2.243-5.757-1-9l-100-100c-3.243-3.243-5.95-4.050-9-1s-3.243 6.757 0 10l100 100c1.622 1.621 3.426 1.952 5 2zM221 168l43-43-33-34h-16v28h-27v16l33 33z" />
<glyph unicode="&#xe635;" d="M365.728 91.429q0 7.424-5.44 12.864t-12.864 5.44-12.864-5.44-5.44-12.864 5.44-12.864 12.864-5.44 12.864 5.44 5.44 12.864zM438.848 91.429q0 7.424-5.44 12.864t-12.864 5.44-12.864-5.44-5.44-12.864 5.44-12.864 12.864-5.44 12.864 5.44 5.44 12.864zM475.424 155.429v-91.424q0-11.424-8-19.424t-19.424-8h-420.576q-11.424 0-19.424 8t-8 19.424v91.424q0 11.424 8 19.424t19.424 8h132.864l38.56-38.848q16.576-16 38.848-16t38.848 16l38.848 38.848h132.576q11.424 0 19.424-8t8-19.424zM382.56 317.989q4.864-11.712-4-20l-128-128q-5.152-5.44-12.864-5.44t-12.864 5.44l-128 128q-8.864 8.288-4 20 4.864 11.136 16.864 11.136h73.152v128q0 7.424 5.44 12.864t12.864 5.44h73.152q7.424 0 12.864-5.44t5.44-12.864v-128h73.152q12 0 16.864-11.136z" horiz-adv-x="480" />
<glyph unicode="&#xe636;" d="M170.016 201.157q0-3.712-2.848-6.56l-133.152-133.152q-2.848-2.848-6.56-2.848t-6.56 2.848l-14.272 14.272q-2.848 2.848-2.848 6.56t2.848 6.56l112.288 112.288-112.288 112.288q-2.848 2.848-2.848 6.56t2.848 6.56l14.272 14.272q2.848 2.848 6.56 2.848t6.56-2.848l133.152-133.152q2.848-2.848 2.848-6.56zM279.712 201.157q0-3.712-2.848-6.56l-133.152-133.152q-2.848-2.848-6.56-2.848t-6.56 2.848l-14.272 14.272q-2.848 2.848-2.848 6.56t2.848 6.56l112.288 112.288-112.288 112.288q-2.848 2.848-2.848 6.56t2.848 6.56l14.272 14.272q2.848 2.848 6.56 2.848t6.56-2.848l133.152-133.152q2.848-2.848 2.848-6.56z" horiz-adv-x="288" />
<glyph unicode="&#xe637;" d="M200 480c-22.016 0-52.448-12.448-68-28l-72-72c-15.552-15.552-28-45.984-28-68v-208c0-21.984 17.984-40 40-40h56v-56c0-21.984 17.984-40 40-40h272c21.984 0 40 17.984 40 40v336c0 21.984-17.984 40-40 40h-56v56c0 21.984-17.984 40-40 40zM200 448h144c4.32 0 8-3.68 8-8v-56h-56c-22.016 0-52.448-12.448-68-28l-72-72c-15.552-15.552-28-45.984-28-68v-120h-56c-4.352 0-8 3.648-8 8v208c0 2.432 0.456 5.12 1 8 28.009 0.335 56.871 0.197 88 0 21.984 0 39 17.984 39 40v87c0 0 5.6 1 8 1zM160 434v-74c-0.066-4.351-3.68-8-8-8h-74c1.504 2.176 3.432 4.432 5 6l71 71c1.568 1.568 3.824 3.496 6 5zM384 352h56c4.32 0 8-3.68 8-8v-336c0-4.352-3.68-8-8-8h-272c-4.352 0-8 3.648-8 8v208c0 2.432 0.456 5.12 1 8 28.009 0.335 56.871 0.197 88 0 21.984 0 39 17.984 39 40v87c0 0 5.6 1 8 1h56zM256 338v-74c-0.066-4.351-3.68-8-8-8h-74c1.504 2.176 3.432 4.432 5 6l71 71c1.568 1.568 3.824 3.496 6 5z" />
<glyph unicode="&#xe638;" d="M256-36.571q-69.504 0-128.512 8.512t-93.248 23.264-34.24 32.256v64q0 4 3.008 9.504 31.008-18.496 101.248-30.016t151.744-11.488 151.744 11.488 101.248 30.016q3.008-5.504 3.008-9.504v-64q0-17.504-34.24-32.256t-93.248-23.264-128.512-8.512zM256 91.429q-69.504 0-128.512 8.512t-93.248 23.264-34.24 32.256v64q0 4 3.008 9.504 31.008-18.496 101.248-30.016t151.744-11.488 151.744 11.488 101.248 30.016q3.008-5.504 3.008-9.504v-64q0-17.504-34.24-32.256t-93.248-23.264-128.512-8.512zM256 219.429q-69.504 0-128.512 8.512t-93.248 23.264-34.24 32.256v64q0 4 3.008 9.504 31.008-18.496 101.248-30.016t151.744-11.488 151.744 11.488 101.248 30.016q3.008-5.504 3.008-9.504v-64q0-17.504-34.24-32.256t-93.248-23.264-128.512-8.512zM256 347.429q-69.504 0-128.512 8.512t-93.248 23.264-34.24 32.256 34.24 32.256 93.248 23.264 128.512 8.512 128.512-8.512 93.248-23.264 34.24-32.256-34.24-32.256-93.248-23.264-128.512-8.512z" />
<glyph unicode="&#xe639;" d="M72 448c-22.016 0-40-18.016-40-40v-368c0-22.016 18.016-40 40-40h304c22.016 0 40 18.016 40 40v240c0 2.45-0.698 5.368-1 8h-120c-21.984 0-40 17.984-40 40v119c-2.292 0.233-4.852 1-7 1h-176zM287 439v-111c0-4.352 3.68-8 8-8h111c-4.969 11.062-10.949 20.949-18 28l-72 72c-7.324 7.324-17.441 13.961-29 19zM138 224h171c3.114 0 6.007-1.293 8-3s3-3.334 3-6v-14c0-2.666-1.007-4.293-3-6s-4.885-3-8-3h-171c-3.114 0-5.007 1.293-7 3s-3 3.334-3 6v14c0 2.666 1.007 4.293 3 6s3.886 3 7 3zM138 128h171c3.114 0 6.007-1.293 8-3s3-3.334 3-6v-14c0-2.666-1.007-4.293-3-6s-4.885-3-8-3h-171c-3.114 0-5.007 1.293-7 3s-3 3.334-3 6v14c0 2.666 1.007 4.293 3 6s3.886 3 7 3zM365.088 325.664c1.568-1.568 3.136-3.488 4.64-5.664l-66.242 17.964-15.486 63.764c2.176-1.504 4.096-3.072 5.664-4.64z" horiz-adv-x="450" />
<glyph unicode="&#xe63a;" d="M72 448c-22.016 0-40-18.016-40-40v-368c0-22.016 18.016-40 40-40h304c22.016 0 40 18.016 40 40v240c0 22.016-12.448 52.448-28 68l-72 72c-15.552 15.552-45.984 28-68 28zM72 416h176c2.4 0 8-1 8-1s0-58.743 0-87c0-22.016 17.016-40 39-40 31.128 0.197 59.991 0.335 88 0 0.544-2.88 1-5.568 1-8v-240c0-4.352-3.648-8-8-8h-304c-4.32 0-8 3.648-8 8v368c0 4.32 3.68 8 8 8zM288 402c2.176-1.504 4.432-3.432 6-5l71-71c1.568-1.568 3.496-3.824 5-6h-74c-4.32 0-7.934 3.649-8 8v66z" horiz-adv-x="448" />
<glyph unicode="&#xe63b;" d="M292.576 219.429q0 30.272-21.44 51.712t-51.712 21.44-51.712-21.44-21.44-51.712 21.44-51.712 51.712-21.44 51.712 21.44 21.44 51.712zM438.848 250.565v-63.424q0-3.424-2.272-6.56t-5.728-3.712l-52.864-8q-5.44-15.424-11.136-26.016 10.016-14.272 30.56-39.424 2.848-3.424 2.848-7.136t-2.56-6.56q-7.712-10.56-28.288-30.848t-26.848-20.288q-3.424 0-7.424 2.56l-39.424 30.848q-12.576-6.56-26.016-10.848-4.576-38.848-8.288-53.152-2.016-8-10.272-8h-63.424q-4 0-7.008 2.432t-3.296 6.144l-8 52.576q-14.016 4.576-25.728 10.56l-40.288-30.56q-2.848-2.56-7.136-2.56-4 0-7.136 3.136-36 32.576-47.136 48-2.016 2.848-2.016 6.56 0 3.424 2.272 6.56 4.288 6.016 14.56 19.008t15.424 20.128q-7.712 14.272-11.712 28.288l-52.288 7.712q-3.712 0.576-6.016 3.584t-2.272 6.72v63.424q0 3.424 2.272 6.56t5.44 3.712l53.152 8q4 13.152 11.136 26.272-11.424 16.288-30.56 39.424-2.848 3.424-2.848 6.848 0 2.848 2.56 6.56 7.424 10.272 28.128 30.72t27.008 20.416q3.712 0 7.424-2.848l39.424-30.56q12.576 6.56 26.016 10.848 4.576 38.848 8.288 53.152 2.016 8 10.272 8h63.424q4 0 7.008-2.432t3.296-6.144l8-52.576q14.016-4.576 25.728-10.56l40.576 30.56q2.56 2.56 6.848 2.56 3.712 0 7.136-2.848 36.864-34.016 47.136-48.576 2.016-2.272 2.016-6.272 0-3.424-2.272-6.56-4.288-6.016-14.56-19.008t-15.424-20.128q7.424-14.272 11.712-28l52.288-8q3.712-0.576 6.016-3.584t2.272-6.72z" horiz-adv-x="448" />
<glyph unicode="&#xe63c;" d="M219.424 374.853q-42.272 0-78.016-20.864t-56.576-56.576-20.864-78.016 20.864-78.016 56.576-56.576 78.016-20.864 77.984 20.864 56.576 56.576 20.864 78.016-20.864 78.016-56.576 56.576-78.016 20.864zM438.848 219.429q0-59.712-29.44-110.144t-79.872-79.872-110.144-29.44-110.144 29.44-79.872 79.872-29.44 110.144 29.44 110.144 79.872 79.872 110.144 29.44 110.144-29.44 79.872-79.872 29.44-110.144z" horiz-adv-x="448" />
<glyph unicode="&#xe63d;" d="M416 140.986v-56.227c0-23.494-8.195-43.574-24.586-60.238-16.39-16.664-36.139-24.521-59.246-24.521h-248.338c-23.107 0-42.856 7.856-59.246 24.52-16.39 16.665-24.585 36.745-24.585 60.238v246.291c0 23.494 8.195 43.574 24.585 60.239 16.39 16.665 36.139 24.997 59.246 24.997h242.233c12.238 0 23.596-2.464 34.074-7.393 2.913-1.392 4.663-3.658 5.25-6.796 0.587-3.36 0.202-6.825-2.608-8.587l-14.281-8.947c-3.284-2.057-5.825-3.548-9.325-2.354-4.456 1.193-8.825 1.79-13.108 1.79h-242.233c-12.803 0-27.195-5.245-36.325-14.528-9.13-9.283-15.506-25.404-15.506-38.422v-246.291c0-13.018 6.782-28.345 15.913-37.627s23.116-15.132 35.919-15.132h248.337c12.803 0 25.719 5.832 35.919 13.924 10.941 8.679 15.913 25.817 15.913 38.835v37.297c0 2.564 0.87 4.73 2.608 6.498l13.382 18.93c2.398 3.392 6.315 3.658 10.206 2.089s5.837-4.431 5.837-8.587zM472.339 302.854l-232.576-232.576q-6.848-6.848-16.288-6.848t-16.288 6.848l-122.848 122.848q-6.848 6.848-6.848 16.288t6.848 16.288l31.424 31.424q6.848 6.848 16.288 6.848t16.288-6.848l75.136-75.136 184.864 184.864q6.848 6.848 16.288 6.848t16.288-6.848l31.424-31.424q6.848-6.848 6.848-16.288t-6.848-16.288z" horiz-adv-x="480" />
<glyph unicode="&#xe63e;" d="M334.56 243.141l-120.576-120.576q-5.44-5.44-12.864-5.44t-12.864 5.44l-84 84q-5.44 5.44-5.44 12.864t5.44 12.864l29.152 29.152q5.44 5.44 12.864 5.44t12.864-5.44l42.016-42.016 78.56 78.56q5.44 5.44 12.864 5.44t12.864-5.44l29.152-29.152q5.44-5.44 5.44-12.864t-5.44-12.864zM374.848 219.429q0 42.272-20.864 78.016t-56.576 56.576-78.016 20.864-78.016-20.864-56.576-56.576-20.864-78.016 20.864-78.016 56.576-56.576 78.016-20.864 78.016 20.864 56.576 56.576 20.864 78.016zM438.848 219.429q0-59.712-29.44-110.144t-79.872-79.872-110.144-29.44-110.144 29.44-79.872 79.872-29.44 110.144 29.44 110.144 79.872 79.872 110.144 29.44 110.144-29.44 79.872-79.872 29.44-110.144z" horiz-adv-x="448" />
<glyph unicode="&#xe63f;" d="M366.848 265.701q0 8-5.152 13.152l-26.016 25.728q-5.44 5.44-12.864 5.44t-12.864-5.44l-116.576-116.288-64.576 64.576q-5.44 5.44-12.864 5.44t-12.864-5.44l-26.016-25.728q-5.152-5.152-5.152-13.152 0-7.712 5.152-12.864l103.424-103.424q5.44-5.44 12.864-5.44 7.712 0 13.152 5.44l155.136 155.136q5.152 5.152 5.152 12.864zM438.848 219.429q0-59.712-29.44-110.144t-79.872-79.872-110.144-29.44-110.144 29.44-79.872 79.872-29.44 110.144 29.44 110.144 79.872 79.872 110.144 29.44 110.144-29.44 79.872-79.872 29.44-110.144z" horiz-adv-x="448" />
<glyph unicode="&#xe640;" d="M416 128.005q0 11.424-8 19.424l-59.424 59.424q-8 8-19.424 8-12 0-20.576-9.152 0.864-0.864 5.44-5.28t6.144-6.144 4.288-5.44 3.712-7.296 0.992-7.872q0-11.424-8-19.424t-19.424-8q-4.288 0-7.872 0.992t-7.296 3.712-5.44 4.288-6.144 6.144-5.28 5.44q-9.44-8.864-9.44-20.864 0-11.424 8-19.424l58.848-59.136q7.712-7.712 19.424-7.712 11.424 0 19.424 7.424l42.016 41.728q8 8 8 19.136zM215.136 329.413q0 11.424-8 19.424l-58.848 59.136q-8 8-19.424 8-11.136 0-19.424-7.712l-42.016-41.728q-8-8-8-19.136 0-11.424 8-19.424l59.424-59.424q7.712-7.712 19.424-7.712 12 0 20.576 8.864-0.864 0.864-5.44 5.28t-6.144 6.144-4.288 5.44-3.712 7.296-0.992 7.872q0 11.424 8 19.424t19.424 8q4.288 0 7.872-0.992t7.296-3.712 5.44-4.288 6.144-6.144 5.28-5.44q9.44 8.864 9.44 20.864zM470.848 128.005q0-34.272-24.288-58.016l-42.016-41.728q-23.712-23.712-58.016-23.712-34.56 0-58.272 24.288l-58.848 59.136q-23.712 23.712-23.712 58.016 0 35.136 25.152 59.712l-25.152 25.152q-24.576-25.152-59.424-25.152-34.272 0-58.272 24l-59.424 59.424q-24 24-24 58.272t24.288 58.016l42.016 41.728q23.712 23.712 58.016 23.712 34.56 0 58.272-24.288l58.848-59.136q23.712-23.712 23.712-58.016 0-35.136-25.152-59.712l25.152-25.152q24.576 25.152 59.424 25.152 34.272 0 58.272-24l59.424-59.424q24-24 24-58.272z" horiz-adv-x="480" />
<glyph unicode="&#xe641;" d="M292.576 128.005q0-7.424-5.44-12.864t-12.864-5.44h-256q-7.424 0-12.864 5.44t-5.44 12.864 5.44 12.864l128 128q5.44 5.44 12.864 5.44t12.864-5.44l128-128q5.44-5.44 5.44-12.864z" horiz-adv-x="288" />
<glyph unicode="&#xe642;" d="M164.576 219.429q0-7.424-5.44-12.864l-128-128q-5.44-5.44-12.864-5.44t-12.864 5.44-5.44 12.864v256q0 7.424 5.44 12.864t12.864 5.44 12.864-5.44l128-128q5.44-5.44 5.44-12.864z" horiz-adv-x="192" />
<glyph unicode="&#xe643;" d="M182.848 347.429v-256q0-7.424-5.44-12.864t-12.864-5.44-12.864 5.44l-128 128q-5.44 5.44-5.44 12.864t5.44 12.864l128 128q5.44 5.44 12.864 5.44t12.864-5.44 5.44-12.864z" horiz-adv-x="192" />
<glyph unicode="&#xe644;" d="M292.576 274.277q0-7.424-5.44-12.864l-128-128q-5.44-5.44-12.864-5.44t-12.864 5.44l-128 128q-5.44 5.44-5.44 12.864t5.44 12.864 12.864 5.44h256q7.424 0 12.864-5.44t5.44-12.864z" horiz-adv-x="288" />
<glyph unicode="&#xe645;" d="M146.272 182.853v-109.728h-73.152v109.728h73.152zM256 329.157v-256h-73.152v256h73.152zM365.728 256.005v-182.848h-73.152v182.848h73.152zM475.424 365.701v-292.576h-73.152v292.576h73.152zM512 45.701v347.424q0 3.712-2.72 6.432t-6.432 2.72h-457.152q-3.712 0-6.432-2.72t-2.72-6.432v-347.424q0-3.712 2.72-6.432t6.432-2.72h457.152q3.712 0 6.432 2.72t2.72 6.432zM548.576 393.157v-347.424q0-18.848-13.44-32.288t-32.288-13.44h-457.152q-18.848 0-32.288 13.44t-13.44 32.288v347.424q0 18.848 13.44 32.288t32.288 13.44h457.152q18.848 0 32.288-13.44t13.44-32.288z" horiz-adv-x="544" />
<glyph unicode="&#xe646;" d="M374.848 220.293q0 46.016-24.864 84.288l-215.424-215.136q39.136-25.44 84.864-25.44 31.712 0 60.416 12.416t49.568 33.28 33.152 49.856 12.288 60.704zM89.44 134.853l215.712 215.424q-38.56 26.016-85.728 26.016-42.272 0-78.016-20.864t-56.576-56.864-20.864-78.272q0-46.272 25.44-85.44zM438.848 220.293q0-44.864-17.44-85.728t-46.72-70.272-70.016-46.848-85.28-17.44-85.28 17.44-70.016 46.848-46.72 70.272-17.44 85.728 17.44 85.568 46.72 70.144 70.016 46.848 85.28 17.44 85.28-17.44 70.016-46.848 46.72-70.144 17.44-85.568z" horiz-adv-x="448" />
<glyph unicode="&#xe647;" d="M460.288 197.989q0-14.56-10.56-25.728l-21.44-21.44q-10.848-10.848-26.016-10.848-15.424 0-25.728 10.848l-84 83.712v-201.152q0-14.848-10.72-24.128t-25.856-9.28h-36.576q-15.136 0-25.856 9.28t-10.72 24.128v201.152l-84-83.712q-10.272-10.848-25.728-10.848t-25.728 10.848l-21.44 21.44q-10.848 10.848-10.848 25.728 0 15.136 10.848 26.016l186.016 186.016q10.016 10.56 25.728 10.56 15.424 0 26.016-10.56l186.016-186.016q10.56-11.136 10.56-26.016z" horiz-adv-x="480" />
<glyph unicode="&#xe648;" d="M460.288 237.701q0-15.136-10.56-25.728l-186.016-186.272q-11.136-10.56-26.016-10.56-15.136 0-25.728 10.56l-186.016 186.272q-10.848 10.272-10.848 25.728 0 15.136 10.848 26.016l21.152 21.44q11.136 10.56 26.016 10.56 15.136 0 25.728-10.56l84-84v201.152q0 14.848 10.848 25.728t25.728 10.848h36.576q14.848 0 25.728-10.848t10.848-25.728v-201.152l84 84q10.56 10.56 25.728 10.56 14.848 0 26.016-10.56l21.44-21.44q10.56-11.136 10.56-26.016z" horiz-adv-x="480" />
<glyph unicode="&#xe649;" d="M416 443.429h-320l-96-96v-336c0-8.832 7.168-16 16-16h480c8.832 0 16 7.168 16 16v336l-96 96zM256 59.429l-160 128h96v96h128v-96h96l-160-128zM77.248 379.429l32 32h293.504l32-32h-357.504z" />
<glyph unicode="&#xe64a;" d="M170.016 201.157q0-3.712-2.848-6.56l-133.152-133.152q-2.848-2.848-6.56-2.848t-6.56 2.848l-14.272 14.272q-2.848 2.848-2.848 6.56t2.848 6.56l112.288 112.288-112.288 112.288q-2.848 2.848-2.848 6.56t2.848 6.56l14.272 14.272q2.848 2.848 6.56 2.848t6.56-2.848l133.152-133.152q2.848-2.848 2.848-6.56z" horiz-adv-x="192" />
<glyph unicode="&#xe64b;" d="M475.664 418.357l141.648-198.976-141.648-198.944c0-13.968 11.312-25.376 25.376-25.376h310.272c6.688 0 13.152 2.72 18.016 7.472l153.264 198.944c4.752 4.752 7.424 11.232 7.424 17.904 0 6.768-2.672 13.2-7.424 17.952l-153.28 198.96c-4.768 4.752-11.216 7.488-18.016 7.488h-310.272c-14.048-0.016-25.36-11.424-25.36-25.424zM601.312 116.981c0 1.456 0.608 2.912 1.712 3.936 24.192 23.536 53.728 40.096 85.584 48.048 0.768 0.416 1.632 0.688 2.56 0.688h2.96c0.864 0 1.76-0.272 2.528-0.688 9.664-5.12 22.832-8.112 36.176-8.112 13.328 0 26.528 2.992 36.080 8.112 0.896 0.416 1.776 0.688 2.656 0.688h2.128c0.416 0 0.864 0 1.232-0.192 32.608-7.68 62.992-24.512 87.728-48.544 1.040-1.024 1.68-2.48 1.68-3.936v-19.728c0-3.088-2.496-5.552-5.52-5.552h-251.952c-3.056 0-5.552 2.448-5.552 5.552v19.728zM674.736 275.637c-1.216 4.592-1.872 9.376-1.872 14.32 0 31.664 26.656 57.344 59.504 57.344 32.864 0 59.504-25.68 59.504-57.344 0-4.944-3.008-18.928-1.872-14.32 0.544 2.176-3.696-24.4-3.696-24.4-5.008-36.8-27.248-64.544-53.92-64.544-26.928 0-49.328 28.288-54.048 65.664l-4 25.024zM33.968 418.357v-397.904c0-13.968 11.376-25.376 25.424-25.376h310.288c6.784 0 13.152 2.72 17.952 7.472l153.264 198.944c4.768 4.736 7.488 11.232 7.488 17.904 0 6.768-2.72 13.2-7.488 17.952l-153.264 198.944c-4.8 4.752-11.168 7.488-17.952 7.488h-310.288c-14.048 0-25.424-11.424-25.424-25.424zM103.904 116.981c0 1.456 0.608 2.912 1.712 3.936 24.192 23.536 53.728 40.096 85.584 48.048 0.768 0.416 1.632 0.688 2.56 0.688h2.96c0.864 0 1.76-0.272 2.528-0.688 9.664-5.12 22.832-8.112 36.176-8.112 13.328 0 26.528 2.992 36.080 8.112 0.896 0.416 1.776 0.688 2.656 0.688h2.128c0.416 0 0.864 0 1.232-0.192 32.608-7.68 62.992-24.512 87.728-48.544 1.040-1.024 1.68-2.48 1.68-3.936v-19.728c0-3.088-2.496-5.552-5.52-5.552h-251.952c-3.056 0-5.552 2.448-5.552 5.552v19.728zM177.328 275.637c-1.216 4.592-1.872 9.376-1.872 14.32 0 31.664 26.656 57.344 59.504 57.344 32.864 0 59.504-25.68 59.504-57.344 0-4.944-3.008-18.928-1.872-14.32 0.544 2.176-3.696-24.4-3.696-24.4-5.008-36.8-27.248-64.544-53.92-64.544-26.928 0-49.328 28.288-54.048 65.664l-4 25.024zM0 251.429h192z" horiz-adv-x="1024" />
<glyph unicode="&#xe64c;" d="M0 480h128v-128h-128zM192 448l158 1-60-65h-98zM0 288h128v-128h-128zM445 256.019l67-0.019v-64l-134 1zM0 96h128v-128h-128zM192 64h320v-64h-320zM211.353 115.784l38.724 38.652-50.742 50.647-38.724-38.652v-18.659h32.047v-31.988zM358.236 355.693c-3.561 3.554-7.233 3.443-11.017-0.333l-116.839-116.623c-3.784-3.776-3.894-7.441-0.334-10.996 3.561-3.554 7.233-3.443 11.016 0.333l116.839 116.623c3.784 3.776 3.894 7.442 0.334 10.996zM352.895 403.675l96.142-95.964-224.331-223.915h-96.142v95.964zM501.113 359.692l-30.712-30.655-96.142 95.964 30.712 30.655c6.231 6.22 13.798 9.33 22.7 9.33s16.469-3.11 22.7-9.33l50.741-50.647c6.231-6.22 9.347-13.772 9.347-22.658s-3.115-16.438-9.347-22.658z" />
<glyph unicode="&#xe64d;" d="M256 475.429c-141.385 0-256-114.615-256-256s114.615-256 256-256c141.385 0 256 114.615 256 256 0 141.385-114.615 256-256 256zM249.5 385.429c17.575-0 35.424-1.286 54-4 18.575-2.572 37.638-6.714 57.5-12v-67.5c-17.575 7.858-34.282 13.499-51 17.5-16.718 4-32.639 6-47.5 6-19.719-0-34.57-2.571-44-8-9.431-5.43-14-13.569-14-25 0-8.574 3.213-15.642 9.5-20.5 6.43-4.716 17.782-8.571 34.5-12l35.5-7c35.579-7.144 60.496-17.925 75.5-32.5 15.003-14.575 22.5-35.637 22.5-62.5-0-35.293-10.495-61.711-31.5-79-20.862-17.147-52.49-25.5-95.5-25.5-20.291 0-40.567 2.142-61 6-20.433 3.858-41.067 9.427-61.5 17v69.5c20.433-10.86 39.995-18.928 59-24.5 19.147-5.43 37.781-8 55.5-8 18.004 0 31.926 2.998 41.5 9 9.574 6.002 14 14.354 14 25.5 0 10.002-2.928 17.57-9.5 23-6.43 5.43-19.567 10.213-39 14.5l-32 7.5c-32.007 6.858-55.139 17.497-70 32.5-14.718 15.003-22 35.565-22 61 0 31.864 9.924 56.353 30.5 73.5 20.576 17.147 50.42 25.5 89 25.5z" />
<glyph unicode="&#xe64e;" d="M256 475.429c-141.385 0-256-114.615-256-256s114.615-256 256-256c141.385 0 256 114.615 256 256 0 141.385-114.615 256-256 256zM145 379.429h137c40.723-0 71.781-8.853 93.5-27 21.861-18.005 33-44.064 33-77.5-0-33.579-11.139-59.353-33-77.5-21.719-18.004-52.777-27-93.5-27h-54.5v-111h-82.5v320zM227.5 319.429v-89h46c16.003 0 28.284 3.784 37 11.5 8.716 7.858 13 18.711 13 33 0 14.288-4.284 25.284-13 33-8.716 7.716-20.997 11.5-37 11.5h-46z" />
<glyph unicode="&#xe64f;" d="M256 475.429c-141.385 0-256-114.615-256-256s114.615-256 256-256c141.385 0 256 114.615 256 256 0 141.385-114.615 256-256 256zM214.5 379.429h83v-320h-83v320z" />
<glyph unicode="&#xe650;" d="M256 475.429c-141.385 0-256-114.615-256-256s114.615-256 256-256c141.385 0 256 114.615 256 256 0 141.385-114.615 256-256 256zM261.5 385.429c21.29-0 41.567-2 61-6 19.575-4.001 38.21-10.142 55.5-18v-66c-17.861 10.145-35.782 17.498-53.5 22.5-17.575 5.001-35.282 7.5-53 7.5-32.864-0-58.139-9.067-76-27.5-17.719-18.29-26.5-44.35-26.5-78.5 0-33.865 8.853-60.067 26-78.5 17.147-18.433 41.422-27.5 73-27.5 8.573 0 16.212 0.5 23.5 1.5 7.43 1.143 14.142 2.714 20 5v62h-50.5v55.5h129v-154c-20.577-10.002-42.353-17.499-64.5-22.5-22.148-5.001-44.923-7.5-68.5-7.5-53.298 0-95.351 14.779-126.5 44.5-31.15 29.863-46.5 70.488-46.5 121.5 0 51.582 15.778 91.921 47.5 121.5 31.721 29.577 74.844 44.5 130 44.5z" />
<glyph unicode="&#xe651;" d="M96 475.429c-35.199 0-64-28.8-64-64v-384c0-35.2 28.801-64 64-64h384v448h-32v-416h-336c-26.511 0-48 21.49-48 48 0 26.509 21.489 48 48 48h304v384h-320zM225.594 459.585c6.966 0.022 13.944-2.838 19.688-8.563 3.121-3.111 7.756-5.656 10.281-5.656 2.634 0 6.303-2.183 8.625-5.125 3.896-4.936 4.063-7.371 4.063-64.938 0-64.023-1.080-74.903-9.094-91.281-10.277-21.005-39.858-43.39-63.188-47.844-14.538-2.776-13.656-1.356-13.656-22.844 0-24.457 2.394-32.537 13.188-44.5 28.794-31.916 90.442-31.809 118.125 0.219 4.559 5.274 9.354 12.445 10.625 15.938 1.541 4.234 2.342 23.225 2.438 56.969l0.156 50.625-7.25 3.875c-17.344 9.316-25.522 35.352-16.563 52.719 15.254 29.566 53.854 32.781 72.031 6 13.993-20.617 8.62-44.629-13.219-59.031l-7.656-5.063v-48c0-53.521-1.611-64.255-12.031-80.438-12.108-18.804-35.575-35.063-59.531-41.219-15.704-4.035-43.239-3.763-58.344 0.563-26.556 7.605-51.744 27.664-62.563 49.813-5.148 10.539-5.737 13.865-6.438 36.281l-0.781 24.656-12.969 3.188c-28.951 7.074-53.41 25.715-65.313 49.781l-6.219 12.625-0.563 69.563c-0.544 67.762-0.468 69.671 3.406 73.531 2.187 2.179 6.125 3.938 8.75 3.938 2.625 0 5.909 1.603 7.313 3.563 7.752 10.82 25.912 13.878 36.75 6.188 7.902-5.607 11.719-13.48 11.719-24.156 0-16.384-18.285-29.971-33.313-24.75-3.484 1.21-7.15 2.188-8.156 2.188-1.108 0-1.585-20.166-1.188-51.094 0.625-48.692 0.876-51.528 5.156-60.188 9.255-18.724 30.82-33.039 54.75-36.344 27.692-3.825 53.535 3.844 70.781 21.031 14.463 14.413 15.5 19.621 15.5 77.5 0 46.346-0.237 49.421-3.438 48.188-12.626-4.868-24.789-2.269-32.563 6.938-9.389 11.12-8.923 26.226 1.125 36.469 5.652 5.761 12.596 8.665 19.563 8.688zM340.313 346.929c-9.248-0.274-16.964-10.075-13.406-19.625 4.203-11.28 16.029-14.004 24.438-5.625 8.288 8.259 5.489 20.105-5.781 24.375-1.756 0.666-3.538 0.926-5.25 0.875zM128 59.429v-32h288v32h-288z" />
<glyph unicode="&#xe652;" d="M448 96.603v196.014c0 7.604-2.694 14.070-8.082 19.395-5.387 5.325-16.622 7.988-24.315 7.988h-195.901c-7.694 0-14.234 2.663-19.621 7.988-5.387 5.325-8.082 11.79-8.082 19.395v4.142c0 7.604-2.694 18.558-8.082 23.884-5.387 5.325-11.928 7.988-19.621 7.988h-99.647c-7.694 0-19.181-2.663-24.569-7.988-5.388-5.326-8.081-16.28-8.081-23.884v-254.921c0-7.604 3.090-19.289 8.477-24.615 5.388-5.325 16.876-7.988 24.569-7.988h350.954c7.693 0 18.927 2.663 24.315 7.988 5.387 5.325 7.685 17.010 7.685 24.615zM480.254 292.014v-196.014c0-17.488-3.536-34.932-16.228-47.5s-30.312-15.855-48.026-15.834h-350.954c-17.692 0-35.915 3.287-48.63 15.834-12.714 12.546-16.438 29.99-16.416 47.5v254.921c0 17.488 5.139 33.12 17.832 45.688 12.693 12.568 29.104 18.809 46.819 18.787h94.7c17.692 0 32.896-6.273 45.611-18.819 12.714-12.547 19.061-27.575 19.040-45.084v0.508h191.604c17.692 0 32.896-2.387 45.611-14.934s19.061-27.575 19.039-45.084zM394.894 192.183q0 4.317-3.147 7.471l-84.814 85.005q-3.147 3.154-7.454 3.154t-7.454-3.154-3.147-7.471v-42.502h-37.106q-16.234 0-29.072 0.996t-25.511 3.57q-12.672 2.573-22.032 7.056-9.359 4.482-17.476 11.538-8.117 7.056-13.252 16.769-5.136 9.712-8.034 22.994-2.899 13.282-2.899 30.050 0 9.131 0.828 20.421 0 0.996 0.415 3.901 0.415 2.906 0.415 4.399 0 2.49-1.408 4.151-1.408 1.661-3.893 1.661-2.65 0-4.638-2.823-1.159-1.494-2.153-3.652-0.994-2.158-2.237-4.981-1.243-2.822-1.74-3.985-21.038-47.317-21.038-74.877 0-33.039 8.779-55.286 26.836-66.908 144.946-66.908h37.106v-42.502q0-4.317 3.147-7.471t7.454-3.154 7.454 3.154l84.814 85.005q3.147 3.154 3.147 7.471z" horiz-adv-x="476" />
<glyph unicode="&#xe653;" d="M320 352h-256v64h256zM448 32h-256v64h256zM352 192h-192v64h192zM288 320v-192h-64v192z" />
<glyph unicode="&#xe654;" d="M310.897 406.034l-54-56.5c-8.143-8.16-14.579-18.659-14.5-27.5l1-135.5-88-92 49-47 97 101c6.914 7.091 10.096 15.685 10 24l-1.5 134.5 50 52-49 47zM385.397 335.034l-49-51.5-141.5-11.5c-8.742-0.719-17.225-4.79-24-12l-89.5-93.5 49-47 86 90 142 12c9.293 0.785 20.221 8.027 28 16.5l47.5 50-48.5 47zM64 416c0-32 0-64 0-96h32v64h64v32c-32 0-64 0-96 0zM416 128v-64h-64v-32c32 0 64 0 96 0 0 32 0 64 0 96zM96 288h-32v-64h32zM448 224h-32v-64h32zM192 416v-32h64v32zM256 64v-32h64v32zM-41.16 108.713l1.242-2.517 2.777-0.404-2.010-1.959 0.474-2.766-2.484 1.306-2.484-1.306 0.474 2.766-2.010 1.959 2.778 0.404zM118.282 105.97l-34.31-36.325c-12.125-12.837-32.328-13.373-45.038-1.174l-3.067 2.943c-12.709 12.2-13.168 32.568-1.043 45.406l34.31 36.325zM84.511 139.101l-37.538-39.743c-6.954-7.363-4.367-7.603 2.916-14.594l1.348-1.294c7.284-6.991 8.557-10.456 15.58-3.159l37.909 39.387zM194.357 37.64l-34.31-36.325c-12.125-12.837-32.328-13.373-45.037-1.174l-3.067 2.943c-12.71 12.2-13.168 32.568-1.043 45.406l34.31 36.325zM160.587 70.771l-37.538-39.743c-6.954-7.363-4.367-7.603 2.916-14.594l1.348-1.294c7.283-6.991 8.557-10.455 15.58-3.159l37.909 39.387zM320.364 415.361l34.31 36.325c12.125 12.837 32.328 13.374 45.038 1.174l3.067-2.944c12.709-12.2 13.168-32.568 1.043-45.406l-34.31-36.325zM354.135 382.231l37.538 39.743c6.954 7.363 4.367 7.603-2.916 14.594l-1.348 1.294c-7.284 6.991-8.558 10.455-15.58 3.159l-37.909-39.387zM396.44 347.031l34.31 36.325c12.125 12.837 32.328 13.374 45.038 1.174l3.067-2.944c12.709-12.199 13.168-32.568 1.043-45.405l-34.31-36.326zM430.211 313.9l37.538 39.744c6.954 7.362 4.367 7.603-2.916 14.594l-1.348 1.294c-7.284 6.992-8.558 10.456-15.58 3.16l-37.909-39.388z" />
<glyph unicode="&#xe655;" d="M92 448c-16.304 0-29.5-12.63-29.5-28v-13h64v13c0 15.37-13.196 28-29.5 28h-5zM189 447.5c-16.304 0-29.5-12.13-29.5-27.5v-13h64v13c0 15.37-13.196 27.5-29.5 27.5h-5zM62.5 375.5v-31.5h64v31.5h-64zM159.5 375.5v-31.5h64v31.5h-64zM62.5 335v-7h64v7h-64zM159.5 335v-7h64v7h-64zM62.5 319v-9c-0.102-4.65 0.463-9.546 1.5-14h77.5l-15 15.5v7.5h-64zM159.5 319v-7.5l-15-15.5h78c0.946 4.299 1.098 9.041 1 13.5v9.5h-64zM73 280l27.5-28.5-19-19.5h123l-19 19.5 28 28.5h-140.5zM66.5 216c-2.968-4.935-4.563-11.089-4.5-17.5v-14.5h64v6.5l17 17.5 17-17v-7h64v15c0.063 6.411-1.532 12.211-4.5 17h-153zM62 175v-38.5h64v38.5h-64zM160 175v-38.5h64v38.5h-64zM62 112.5v-40.5h64v40.5h-64zM160 112.5v-40.5h64v40.5h-64zM62 56v-28c0-15.37 13.196-27.5 29.5-27.5h5c16.304 0 29.5 12.13 29.5 27.5v28h-64zM160 56v-27.5c0-15.37 13.196-28 29.5-28h5c16.304 0 29.5 12.63 29.5 28v27.5h-64zM414 384c-16.068 0-29-8.543-29-19v-38.5h63v38.5c0 10.457-12.932 19-29 19h-5zM318 383.5c-16.068 0-29-8.543-29-19v-38h63v38c0 10.457-12.932 19-29 19h-5zM289 310.5v-21c-0.224-7.017 1.743-14.44 7.5-18.5l29.5-20.5-16.5-11.5h116.5l-16 11.5 30 21c5.757 4.060 8.224 11.483 8 18.5v20.5h-63v-19l-17-12-16 11.5v19.5h-63zM297 230c-5.428-3.81-8.585-9.467-8.5-15.5v-30.5h63.5v25.5l16 11.5 17-12v-25h63v30.5c0.085 6.033-3.072 11.19-8.5 15l-0.5 0.5h-142zM288.5 166.5v-30.5h63.5v30.5h-63.5zM385 166.5v-30.5h63v30.5h-63zM288.5 118.5v-20c0-10.457 13.432-19 29.5-19h4.5c16.068 0 29.5 8.543 29.5 19v20h-63.5zM385 118.5v-20.5c0-10.457 12.932-18.5 29-18.5h5c16.068 0 29 8.043 29 18.5v20.5h-63z" />
<glyph unicode="&#xe656;" d="M96 475.429c-53.184 0-96-42.816-96-96v-320c0-53.184 42.816-96 96-96h320c53.184 0 96 42.816 96 96v320c0 53.184-42.816 96-96 96h-320zM118.5 395.429h49v-216.5c0-37.756 6.962-63.884 21-78 14.090-14.051 33.808-21 59-21 15.916 0 57.515 2.521 68.5 8 11.050 5.531 19.355 14.567 25.5 27 5.962 12.394 9 32.894 9 62v218.5h43v-217.5c0-37.26-4.75-64.049-14-80.5-9.211-16.464-22.183-29.807-39-39.5-16.752-9.615-67.368-14.5-95-14.5-29.589 0-53.274 4.942-71.5 15-18.213 10.019-32.185 24.096-41.5 41.5-9.224 17.534-14 44.002-14 79.5v216z" />
<glyph unicode="&#xe657;" d="M96 475.429c-53.184 0-96-42.816-96-96v-320c0-53.184 42.816-96 96-96h320c53.184 0 96 42.816 96 96v320c0 53.184-42.816 96-96 96h-320zM435 411.429c7.307-0.141 14.125-3.324 20-9.5 17.784-18.696 14.643-38.127-17.5-105.5-21.288-44.618-39.111-84.685-53.5-120.5-12.873-32.041-14.313-34.937-19-35.5-3.276-0.394-5.5 0.339-5.5 2 0 1.425 2.808 18.060 6 37 3.193 18.94 8.263 59.303 11.5 90 8.164 77.425 12.808 100.404 24 119.5 8.626 14.719 21.822 22.735 34 22.5zM266 310.429c16.379 0.698 32.014-0.070 41.5-2.5 33.51-8.585 44.729-27.289 32.5-54-18.858-41.192-80.863-66.722-178.5-73.5-17.391-1.208-32.868-2.197-34-2.5-1.133-0.303-3.555-6.077-5.5-12.5-4.27-14.102-3.568-29.618 2-40.5 8.805-17.208 37.169-27.601 67.5-25 29.459 2.527 71.25 13.536 93 24.5 13.577 6.844 15.735 4.856 9-9-3.81-7.838-6.67-10.466-19-17.5-20.054-11.44-58.828-28.906-80-36-35.765-11.982-64.772-14.368-91-7.5-33.431 8.755-51.338 27.937-56.5 60.5-5.228 32.981 10.276 79.787 37.5 114 23.246 29.214 78.423 59.976 135.5 75.5 12.358 3.361 29.621 5.302 46 6zM260 271.429c-38.888-2.104-87.83-25.952-110-54-4.209-5.325-7.5-10.994-7.5-12.5 0-4.031 22.238-3.486 44.5 1 36.119 7.277 68.461 21.77 87 40 10.984 10.801 12.441 17.059 6.5 23-2.772 2.772-5.715 3.3-20.5 2.5zM342.5 115.929c24.103 1.055 46.612-17.539 46.5-44.5-0.080-17.779-11.118-34.167-27.5-41-9.961-4.154-28.345-4.076-37 0.5-10.001 5.287-20.39 18.324-23 28-4.806 17.818 2.642 39.56 17 49 7.671 5.043 15.966 7.649 24 8z" />
<glyph unicode="&#xe658;" d="M96 475.429c-53.184 0-96-42.816-96-96v-320c0-53.184 42.816-96 96-96h320c53.184 0 96 42.816 96 96v320c0 53.184-42.816 96-96 96h-320zM283.5 395.429c53.074 0 95.548-14.111 127-42.5 31.432-28.429 47.5-64.076 47.5-107 0-39.82-11.098-76.626-33-110-21.902-33.394-48.448-57.305-79.5-71.5-31.091-14.154-62.068-21-93-21-9.97 0-27.355 1.099-52 3-20.741 1.601-40.321 2-59 2-8.669 0-21.782 0.101-39.5-0.5l6.5 14c17.758 1.002 28.715 2.398 33 4.5 4.345 2.122 7.897 5.935 11 11 5.566 8.829 13.33 27.889 23 57.5l20 75.5 23 94c1.202 4.645 1.5 8.676 1.5 12 0 3.103-1.138 5.198-3 7-1.982 1.822-4.536 3-8 3-1.343-0.014-3.976-0.478-8-1l3 12.5c20.962 1.721 45.491 5.733 74 12.5-8.269-21.382-15.613-45.333-22-72.5l-19-80.5c-13.654-58.099-28.842-102.31-46-132 16.557-3.224 31.307-4.5 44-4.5 33.654 0 63.014 6.846 88 21 24.966 14.195 44.865 34.913 59.5 62 14.735 27.147 22 57.286 22 90 0 42.964-12.534 77.373-37.5 103.5-25.065 26.067-57.599 39-98 39-33.995 0-66.309-8.364-96.5-24.5-30.191-16.216-53.942-37.313-71.5-64-17.638-26.708-26.5-52.854-26.5-78 0-24.645 10.478-42.468 32-54 6.186-3.464 10.198-6.538 12-9 1.822-2.483 3-5.836 3-9.5 0-4.625-1.957-8.497-5.5-12-3.624-3.524-7.815-5.5-12.5-5.5-10.13 0-19.81 6.586-29.5 20-13.093 18.859-20 38.62-20 58.5 0 33.114 10.24 65.108 30 96 19.68 30.911 46.704 55.161 82 73.5 35.196 18.298 74.356 27.5 117.5 27.5z" />
<glyph unicode="&#xe659;" d="M96 475.429c-53.184 0-96-42.816-96-96v-320c0-53.184 42.816-96 96-96h320c53.184 0 96 42.816 96 96v320c0 53.184-42.816 96-96 96h-320zM103.5 411.429c5.264 0.247 10.271-0.267 15.5-2 11.054-3.719 23.807-16.986 27-28 8.104-27.93-10.45-55.303-38.5-57-4.749-0.183-10.716 0.435-13 1-12.732 3.315-23.7 12.198-29.5 24-5.072 10.306-4.815 26.309 0.5 37 7.29 14.899 22.207 24.259 38 25zM299.5 410.929c2.966 0.314 6.358 0.243 10 0 11.156-0.687 18.492-3.821 27-11.5 17.38-15.743 17.558-44.944 0.5-62-10.509-10.488-29.486-15.805-42.5-11.5-18.875 6.184-31.5 22.246-31.5 41 0 13.682 3.138 21.739 13 31.5 7.942 8.003 14.6 11.556 23.5 12.5zM400.5 410.929c2.967 0.314 6.352 0.243 10 0 11.135-0.687 18.492-3.821 27-11.5 17.4-15.743 18.056-44.944 1-62-10.529-10.488-29.965-15.805-43-11.5-18.856 6.184-31.5 22.246-31.5 41 0 13.682 3.638 21.739 13.5 31.5 7.942 8.003 14.097 11.556 23 12.5zM104.5 312.429c6.492 0.023 13.084-1.030 17.5-3 9.478-4.507 17.554-12.441 22-22 9.923-20.815 1.296-47.31-19.5-58-7.862-4.103-26.749-4.693-35.5-1.5-7.963 3.011-19.054 13.37-23.5 22-3.112 6.002-3.919 8.537-4 18.5-0.016 10.125 0.626 13.068 4 20 4.365 8.811 12.163 16.195 21.5 20.5 4.436 2.061 11.008 3.477 17.5 3.5zM207 312.429c6.492-0.023 13.064-1.439 17.5-3.5 9.337-4.305 17.135-11.689 21.5-20.5 3.334-6.932 4.020-9.875 4-20-0.016-10.125-0.827-12.498-4-18.5-4.709-8.993-15.633-19.171-24-22-7.821-2.627-22.786-3.108-30-0.5-18.673 6.75-29.834 24.068-28.5 44.5 1.091 16.693 10.641 30.387 26 37.5 4.416 1.97 11.008 3.023 17.5 3zM205 213.429c5.66 0.324 11.402-0.575 17-2.5 8.367-2.809 19.251-13.007 24-22 3.173-6.002 4-8.375 4-18.5 0-13.682-2.694-21.284-11-30.5-10.246-11.236-30.414-17.168-44.5-12.5-7.78 2.627-11.134 4.781-17.5 10.5-12.489 11.257-17.184 31.529-11 48 6.032 16.036 22.020 26.529 39 27.5zM104.5 212.929c25.019 0 43.52-18.698 43.5-44 0-16.673-10.222-32.25-25.5-39-9.499-4.325-22.744-4.673-32-1.5-31.506 11.358-39.656 50.987-15 73.5 8.751 8.063 16.935 11 29 11zM405 212.929c10.024 0.567 12.381-0.005 20-3.5 9.741-4.305 18.534-12.759 23-22.5 4.345-9.559 4.107-26.082-0.5-35.5-4.305-8.811-13.755-17.943-22-21.5-7.983-3.557-22.442-4.925-30-2.5-9.397 3.193-13.932 6.305-20.5 13.5-8.407 9.296-11.308 18.137-10.5 32 0.728 12.186 3.774 19.437 12 27.5 8.427 8.427 15.505 11.934 28.5 12.5zM307 114.429c6.654-0.023 12.983-1.281 18.5-4 9.034-4.507 16.796-12.426 21-21.5 4.466-9.741 4.33-26.193-0.5-36.5-7.558-16.127-21.846-25.041-40.5-25-7.599 0.096-11.685 1.075-17 3.5-16.49 7.7-25.5 21.358-25.5 39 0 18.693 8.873 33.002 25 40.5 5.639 2.627 12.346 4.023 19 4zM104.5 113.929c14.49 0 23.143-3.875 32.5-14 8.851-9.761 11.828-17.935 11-32-1.051-17.057-9.025-28.502-24-36-7.255-3.577-9.487-4.662-18.5-4.5-5.78 0.016-13.13 1.010-16 2-36.559 13.096-38.149 65.15-2.5 81.5 4.87 2.202 9.114 3 17.5 3zM408 113.929c9.317 0 12.392-0.308 19-3.5 9.054-4.507 16.776-12.926 21-22 4.446-9.741 3.81-25.693-1-36-7.558-16.127-21.327-25.041-40-25-7.8 0.128-12.079 0.771-18 3.5-10.104 4.608-16.17 10.875-21 21-7.659 15.925-4.363 36.632 7.5 49 8.811 9.154 18.96 13 32.5 13z" />
</font>
</defs>
</svg>
